<?xml version="1.0" standalone="no"?>
<!DOCTYPE svg PUBLIC "-//W3C//DTD SVG 1.1//EN" "http://www.w3.org/Graphics/SVG/1.1/DTD/svg11.dtd">
<svg xmlns="http://www.w3.org/2000/svg">
<metadata>Generated by Fontastic.me</metadata>
<defs>
<font id="cabcharge-icons" horiz-adv-x="512">
<font-face font-family="cabcharge-icons" units-per-em="512" ascent="480" descent="-32"/>
<missing-glyph horiz-adv-x="512" />

<glyph glyph-name="angle-down" unicode="&#99;" d="M399 302c0-3-1-5-3-7l-133-133c-2-2-5-3-7-3-2 0-5 1-7 3l-133 133c-2 2-3 4-3 7 0 2 1 4 3 6l15 15c1 1 4 2 6 2 3 0 5-1 7-2l112-113 112 113c2 1 4 2 7 2 2 0 5-1 6-2l15-15c2-2 3-4 3-6z"/>
<glyph glyph-name="arrow-right" unicode="&#100;" d="M107 213l192 0 0-96 138 139-138 139 0-96-193 0c-23 0-42-19-42-43 0-24 20-43 43-43z"/>
<glyph glyph-name="calandar" unicode="&#101;" d="M14 522c0 1 0 2-1 3-1 1-3 2-5 2-4 0-7-3-7-8 0-4 3-7 7-7 3 0 6 2 6 5l-3 0c0-2-1-3-3-3-3 0-4 2-4 5 0 4 1 6 4 6 1 0 2-1 2-2 1 0 1 0 1-1z m-13 1l0-11 3 0 0 6c0 2 1 2 3 2 0 0 0 0 1 0l0 3c-1 0-1 0-1 0-1 0-2-1-3-2l0 2z m10-6c0 0 0 0 0 0 0 1 0 2-1 3 0 2-2 3-4 3-4 0-6-2-6-6 0-3 2-5 6-5 2 0 4 1 5 3l-3 0c-1-1-1-1-2-1-1 0-2 0-2 1-1 0-1 1-1 2z m-8 2c1 1 1 2 3 2 0 0 1 0 1-1 1 0 1-1 1-1z m8-7c-1 1-1 1-1 2l0 6c0 2-1 3-4 3-3 0-5-1-5-4l3 0c0 2 0 2 2 2 1 0 1 0 1-1 0-1 0-1 0-1-1 0-1 0-2 0l-1-1c-2 0-3-1-3-3 0-1 0-2 0-2 1-1 2-1 3-1 1 0 2 0 3 1 0 0 0-1 1-1l3 0z m-4 4c0-1-1-2-2-2-1 0-2 0-2 1 0 1 1 1 2 2l1 0c1 0 1 0 1 0z m-1 7l-1 0 0 3-3 0 0-3-2 0 0-2 2 0 0-7c0-2 1-2 3-2 0 0 1 0 1 0l0 2c0 0 0 0 0 0-1 0-1 0-1 1l0 6 1 0z m2-11l3 0 0 15-3 0 0-5c0 1-1 1-3 1-2 0-4-2-4-6 0-1 0-3 1-4 1-1 2-1 3-1 2 0 3 0 3 1z m-2 9c1 0 2-2 2-4 0-2-1-3-2-3-2 0-3 1-3 3 0 2 1 4 3 4z m-5 6l0-15 3 0 0 1c1-1 2-1 3-1 3 0 5 2 5 5 0 2-1 3-1 4-1 2-3 2-4 2-1 0-2 0-3-1l0 5z m6-6c1 0 2-2 2-4 0-2-1-3-2-3-2 0-3 1-3 3 0 2 1 4 3 4z m1 2l-2-8-3 8-3 0 4-11 0-1c0-1 0-1-1-1-1 0-1 0-1 0l0-2c0 0 0 0 1 0 1 0 1 0 2 0 1 0 1 1 1 2l5 13z m-6-11l5 0c3 0 4 1 5 2 1 1 2 3 2 5 0 3-1 5-2 6-1 1-2 2-5 2l-5 0z m3 3l0 9 2 0c3 0 4-1 4-5 0-3-1-4-4-4z m2-3l4 11-3 0-2-8-3 8-3 0 4-11z m-3 11l-3 0 0-11 3 0z m0 4l-3 0 0-3 3 0z m2-4l-1 0 0 1c0 1 0 1 0 1 1 0 1 0 1 0l0 2c0 0-1 0-1 0-2 0-3-1-3-3l0-1-2 0 0-2 2 0 0-9 3 0 0 9 1 0z m0 0c-3 0-5-2-5-6 0-3 2-5 5-5 4 0 6 2 6 5 0 4-2 6-6 6z m0-2c2 0 3-1 3-4 0-2-1-3-3-3-1 0-2 1-2 3 0 3 1 4 2 4z m-5 2l0-11 3 0 0 7c0 1 1 2 2 2 1 0 2-1 2-2l0-7 2 0 0 7c0 1 1 2 2 2 1 0 2-1 2-2l0-7 3 0 0 8c0 2-1 3-4 3-1 0-2 0-3-1 0 1-2 1-3 1-1 0-2 0-3-1l0 1z m0 4l0-15 3 0 0 7c0 1 1 2 2 2 1 0 2 0 2-1 0 0 0-1 0-1l0-7 3 0 0 7c0 2 0 3-1 3-1 1-2 1-3 1-1 0-2 0-3-2l0 6z m9-15l4 0 0 15-4 0 0-10-5 10-4 0 0-15 3 0 0 10z m1 0l0 11-3 0 0-7c0-1-1-2-2-2-1 0-2 1-2 2l0 7-3 0 0-8c0-2 2-3 4-3 1 0 2 0 3 1l0-1z m-10 11l0-11 3 0 0 7c0 1 1 2 2 2 2 0 2-1 2-2l0-7 3 0 0 7c0 3-1 4-4 4-1 0-2 0-3-2l0 2z m4-6l3 0c3 0 5 2 5 5 0 3-2 5-5 5l-6 0 0-15 3 0z m0 3l0 4 3 0c1 0 2 0 2-2 0-1-1-2-2-2z m-1 3l-3 0 0-12c0-1 0-1 0-1-1 0-1 0-1 0l0-2c1 0 1 0 2 0 2 0 2 0 2 2z m0 4l-3 0 0-3 3 0z m7-8c-1 3-2 4-5 4-3 0-5-2-5-6 0-3 2-5 5-5 3 0 4 1 5 4l-3 0c0-2-1-2-2-2-2 0-2 1-2 3 0 1 0 2 0 3 0 1 1 1 2 1 1 0 2-1 2-2z m387-68l-17 0 0-20c0-17-13-31-30-31-17 0-31 14-31 31l0 20-34 0 0-20c0-17-13-31-30-31-17 0-30 14-30 31l0 20-34 0 0-20c0-17-14-31-31-31-17 0-30 14-30 31l0 20-17 0c-23 0-41-18-41-41l0-247c0-22 18-40 41-40l284 0c23 0 41 18 41 40l0 247c0 23-18 41-41 41z m14-288c0-7-6-13-14-13l-284 0c-8 0-14 6-14 13l0 193c0 8 6 14 14 14l284 0c8 0 14-6 14-14z m-251 247c11 0 21 9 21 21l0 40c0 11-10 21-21 21-11 0-20-10-20-21l0-40c0-12 9-21 20-21z m95 0c11 0 20 9 20 21l0 40c0 11-9 21-20 21-11 0-20-10-20-21l0-40c0-12 9-21 20-21z m95 0c11 0 20 9 20 21l0 40c0 11-9 21-20 21-11 0-21-10-21-21l0-40c0-12 10-21 21-21z m-185-69l-22 0c-6 0-12-5-12-11l0-23c0-6 6-11 12-11l22 0c7 0 12 5 12 11l0 23c0 6-5 11-12 11z m68 0l-23 0c-6 0-11-5-11-11l0-23c0-6 5-11 11-11l23 0c6 0 11 5 11 11l0 23c0 6-5 11-11 11z m67 0l-23 0c-6 0-11-5-11-11l0-23c0-6 5-11 11-11l23 0c6 0 11 5 11 11l0 23c0 6-5 11-11 11z m67 0l-22 0c-7 0-12-5-12-11l0-23c0-6 5-11 12-11l22 0c6 0 12 5 12 11l0 23c0 6-6 11-12 11z m-202-59l-22 0c-6 0-12-5-12-11l0-23c0-6 6-11 12-11l22 0c7 0 12 5 12 11l0 23c0 6-5 11-12 11z m68 0l-23 0c-6 0-11-5-11-11l0-23c0-6 5-11 11-11l23 0c6 0 11 5 11 11l0 23c0 6-5 11-11 11z m67 0l-23 0c-6 0-11-5-11-11l0-23c0-6 5-11 11-11l23 0c6 0 11 5 11 11l0 23c0 6-5 11-11 11z m67 0l-22 0c-7 0-12-5-12-11l0-23c0-6 5-11 12-11l22 0c6 0 12 5 12 11l0 23c0 6-6 11-12 11z m-202-58l-22 0c-6 0-12-5-12-12l0-22c0-6 6-12 12-12l22 0c7 0 12 6 12 12l0 22c0 7-5 12-12 12z m68 0l-23 0c-6 0-11-5-11-12l0-22c0-6 5-12 11-12l23 0c6 0 11 6 11 12l0 22c0 7-5 12-11 12z m67 0l-23 0c-6 0-11-5-11-12l0-22c0-6 5-12 11-12l23 0c6 0 11 6 11 12l0 22c0 7-5 12-11 12z"/>
<glyph glyph-name="click" unicode="&#102;" d="M14 522c0 1 0 2-1 3-1 1-3 2-5 2-4 0-7-3-7-8 0-4 3-7 7-7 3 0 6 2 6 5l-3 0c0-2-1-3-3-3-3 0-4 2-4 5 0 4 1 6 4 6 1 0 2-1 2-2 1 0 1 0 1-1z m-13 1l0-11 3 0 0 6c0 2 1 2 3 2 0 0 0 0 1 0l0 3c-1 0-1 0-1 0-1 0-2-1-3-2l0 2z m10-6c0 0 0 0 0 0 0 1 0 2-1 3 0 2-2 3-4 3-4 0-6-2-6-6 0-3 2-5 6-5 2 0 4 1 5 3l-3 0c-1-1-1-1-2-1-1 0-2 0-2 1-1 0-1 1-1 2z m-8 2c1 1 1 2 3 2 0 0 1 0 1-1 1 0 1-1 1-1z m8-7c-1 1-1 1-1 2l0 6c0 2-1 3-4 3-3 0-5-1-5-4l3 0c0 2 0 2 2 2 1 0 1 0 1-1 0-1 0-1 0-1-1 0-1 0-2 0l-1-1c-2 0-3-1-3-3 0-1 0-2 0-2 1-1 2-1 3-1 1 0 2 0 3 1 0 0 0-1 1-1l3 0z m-4 4c0-1-1-2-2-2-1 0-2 0-2 1 0 1 1 1 2 2l1 0c1 0 1 0 1 0z m-1 7l-1 0 0 3-3 0 0-3-2 0 0-2 2 0 0-7c0-2 1-2 3-2 0 0 1 0 1 0l0 2c0 0 0 0 0 0-1 0-1 0-1 1l0 6 1 0z m2-11l3 0 0 15-3 0 0-5c0 1-1 1-3 1-2 0-4-2-4-6 0-1 0-3 1-4 1-1 2-1 3-1 2 0 3 0 3 1z m-2 9c1 0 2-2 2-4 0-2-1-3-2-3-2 0-3 1-3 3 0 2 1 4 3 4z m-5 6l0-15 3 0 0 1c1-1 2-1 3-1 3 0 5 2 5 5 0 2-1 3-1 4-1 2-3 2-4 2-1 0-2 0-3-1l0 5z m6-6c1 0 2-2 2-4 0-2-1-3-2-3-2 0-3 1-3 3 0 2 1 4 3 4z m1 2l-2-8-3 8-3 0 4-11 0-1c0-1 0-1-1-1-1 0-1 0-1 0l0-2c0 0 0 0 1 0 1 0 1 0 2 0 1 0 1 1 1 2l5 13z m-4 0l-3 0 0-11 3 0z m0 4l-3 0 0-3 3 0z m7-8c-1 3-2 4-5 4-3 0-5-2-5-6 0-3 2-5 5-5 3 0 4 1 5 4l-3 0c0-2-1-2-2-2-2 0-2 1-2 3 0 1 0 2 0 3 0 1 1 1 2 1 1 0 2-1 2-2z m-5 4c-3 0-5-2-5-6 0-3 2-5 5-5 4 0 6 2 6 5 0 4-2 6-6 6z m0-2c2 0 3-1 3-4 0-2-1-3-3-3-1 0-2 1-2 3 0 3 1 4 2 4z m-5 2l0-11 3 0 0 7c0 1 1 2 2 2 2 0 2-1 2-2l0-7 3 0 0 7c0 3-1 4-4 4-1 0-2 0-3-2l0 2z m9-3c0 2-1 3-4 3-3 0-5-1-5-3 0-1 0-2 1-2 0-1 0-1 1-1l4-1c1 0 1-1 1-1 0-1-1-1-2-1-1 0-2 0-2 0 0 0 0 1-1 1l-2 0c0-2 1-3 5-3 1 0 3 0 3 1 1 0 2 1 2 2 0 2-1 3-3 3l-3 1c-1 0-1 1-1 1 0 1 1 1 2 1 1 0 2 0 2-1z m-6 3l-3 0 0-15 3 0 0 5c1-1 2-1 3-1 3 0 5 2 5 5 0 2-1 3-1 5-1 1-3 1-4 1-1 0-2 0-3-2z m2-2c2 0 3-2 3-4 0-2-1-3-3-3-1 0-2 1-2 3 0 2 1 4 2 4z m-5 6l0-15 3 0 0 7c0 1 1 2 2 2 1 0 2 0 2-1 0 0 0-1 0-1l0-7 3 0 0 7c0 2 0 3-1 3-1 1-2 1-3 1-1 0-2 0-3-2l0 6z m5-4l-1 0 0 1c0 1 0 1 0 1 1 0 1 0 1 0l0 2c0 0-1 0-1 0-2 0-3-1-3-3l0-1-2 0 0-2 2 0 0-9 3 0 0 9 1 0z m-5 0l0-11 3 0 0 7c0 1 1 2 2 2 1 0 2-1 2-2l0-7 2 0 0 7c0 1 1 2 2 2 1 0 2-1 2-2l0-7 3 0 0 8c0 2-1 3-4 3-1 0-2 0-3-1 0 1-2 1-3 1-1 0-2 0-3-1l0 1z m9-11l4 0 0 15-4 0 0-10-5 10-4 0 0-15 3 0 0 10z m1 0l0 11-3 0 0-7c0-1-1-2-2-2-1 0-2 1-2 2l0 7-3 0 0-8c0-2 2-3 4-3 1 0 2 0 3 1l0-1z m-6 5l3 0c3 0 5 2 5 5 0 3-2 5-5 5l-6 0 0-15 3 0z m0 3l0 4 3 0c1 0 2 0 2-2 0-1-1-2-2-2z m-1 3l-3 0 0-12c0-1 0-1 0-1-1 0-1 0-1 0l0-2c1 0 1 0 2 0 2 0 2 0 2 2z m0 4l-3 0 0-3 3 0z m222-39c-4-1-7-5-7-9l0-41c0-3 2-5 4-7 3-1 6-1 8 0 3 2 5 4 5 7l0 41c0 3-1 5-3 6-2 2-4 3-7 3z m-57-21c-3 0-5-2-7-5-1-2 0-6 1-8l25-33c2-2 5-4 8-3 3 0 5 2 6 5 2 2 1 6-1 8l-24 33c-2 2-5 3-8 3z m115 0c-2 0-4-1-6-3l-24-33c-2-2-3-6-2-8 1-3 4-5 7-5 3-1 6 1 8 3l24 33c2 2 2 6 1 9-2 3-5 4-8 4z m-57-53c-18 0-32-15-32-33l0-89-1 2c0 0 0 1 0 1-8 13-16 21-25 23-9 3-18 0-24-4 0 0 0 0 0 0-7-4-13-10-15-18-2-8-1-17 4-29 0 0 0 0 0 0l12-29c0 0 0 0 0 0 23-49 46-83 67-108 1-2 4-3 6-3l111 0c1 0 3 1 5 2 23 17 39 57 46 95 3 19 3 38-1 53-5 16-16 28-33 30 0 0-1 0-1 0-3 0-6 0-10-1 0 0-1 0-1 0-2 5-5 9-8 12-7 4-13 6-18 6-5 0-9-2-13-5-2 3-4 5-6 7-6 5-12 6-18 6-4 0-8-1-12-3 0 17 0 36 0 52 0 18-15 33-33 33z m0-17c10 0 17-6 17-16 0-21 0-50 0-70 0-4 2-7 6-8 4-1 8 1 9 5 2 4 9 7 13 7 2 0 6 0 8-2 3-2 5-4 5-10 0-4 2-7 6-8 4-1 7 1 9 5 3 6 5 7 9 7 2 0 5 0 8-2 3-2 5-4 5-10 0-3 2-6 4-7 3-2 7-1 9 1 0 0 2 1 4 1 2 1 5 1 7 1 9-2 14-7 18-18 3-12 3-29 1-46-6-34-23-71-39-84l-103 0c-19 24-40 56-62 102 0 0 0 0 0 0l-12 28c0 1 0 1 0 1-4 9-4 14-3 17 1 3 3 6 8 9 0 0 0 0 0 0 4 3 7 4 11 3 3-1 8-5 14-16 0 0 0 0 0 0l16-36c2-4 6-6 9-5 4 1 7 4 7 8l0 127c0 10 7 16 16 16z"/>
<glyph glyph-name="credit-card" unicode="&#103;" d="M3 514c0 0 0 0 0 1-1 0-1 0-1 0-1 0-2-1-2-2 0 0 1-1 2-1 0 0 1 0 1 1l-1 0c0 0 0-1 0-1-1 0-1 1-1 1 0 1 0 1 1 1 0 0 0 0 0 0 0 0 0 0 0 0z m-3 0l0-2 1 0 0 1c0 0 0 1 0 1 0 0 0 0 0 0l0 0c0 0 0 0 0 0 0 0 0 0 0 0l0 0z m2-1c0 0 0 0 0 0 0 0 0 0 0 1 0 0 0 0-1 0-1 0-1 0-1-1 0-1 0-1 1-1 1 0 1 0 1 1l0 0c-1-1-1-1-1-1 0 0 0 0 0 1 0 0 0 0 0 0z m-1 0c0 1 0 1 0 1 0 0 0 0 0 0 0 0 1-1 1-1z m1-1c0 0 0 0 0 0l0 2c0 0 0 0-1 0 0 0-1 0-1-1l1 0c0 1 0 1 0 1 0 0 0 0 0 0 0-1 0-1 0-1 0 0 0 0 0 0l0 0c-1 0-1 0-1 0 0-1 0-1 0-1 0 0 1 0 1 0 0 0 0 0 0 0 0 0 0 0 0 0l1 0z m-1 1c0 0 0-1 0-1 0 0 0 0 0 1 0 0 0 0 0 0l0 0c0 0 0 0 0 0z m0 1l0 0 0 1-1 0 0-1 0 0 0 0 0 0 0-2c0 0 1 0 1 0 0 0 0 0 0 0l0 0c0 0 0 0 0 0 0 0 0 0 0 1l0 1 0 0z m1-2l0 0 0 3 0 0 0-1c-1 0-1 0-1 0 0 0-1 0-1-1 0 0 0-1 0-1 1 0 1 0 1 0 0 0 0 0 1 0z m-1 2c0 0 1-1 1-1 0 0-1-1-1-1 0 0 0 1 0 1 0 0 0 1 0 1z m-1 1l0-3 1 0 0 0c0 0 0 0 0 0 1 0 1 0 1 1 0 0 0 1 0 1 0 0 0 0-1 0 0 0 0 0 0 0l0 1z m1-1c1 0 1-1 1-1 0 0 0-1-1-1 0 0 0 1 0 1 0 0 0 1 0 1z m1 0l-1-1 0 1-1 0 1-2 0 0c0 0 0 0-1 0 0 0 0 0 0 0l0-1c0 0 0 0 1 0 0 0 0 0 0 0 0 0 0 0 0 1l1 2z m-1 1l-1 0 0-3 1 0z m1-2c0 1 0 1-1 1 0 0-1 0-1-1 0-1 1-1 1-1 1 0 1 0 1 1l0 0c-1-1-1-1-1-1 0 0 0 1 0 1 0 0 0 0 0 1 0 0 0 0 0 0 0 0 0 0 1-1z m-1 1c0 0-1 0-1-1 0-1 1-1 1-1 1 0 1 0 1 1 0 1 0 1-1 1z m0 0c1 0 1-1 1-1 0 0 0-1-1-1 0 0 0 1 0 1 0 0 0 1 0 1z m-1 0l0-2 1 0 0 1c0 1 0 1 0 1 1 0 1 0 1-1l0-1 0 0 0 1c0 1 0 1-1 1 0 0 0 0 0 0l0 0z m1-1l1 0 0 1-1 0 0 0 1 0 0 1-2 0 0-3 1 0z m0 1l-1 0 0-2 1 0z m0 1l-1 0 0-1 1 0z m0-1l0 0 0 0c0 0 0 1 0 1 0 0 0-1 0-1l0 1c0 0 0 0 0 0 0 0-1 0-1-1l0 0 0 0 0 0 0 0 0-2 1 0 0 2 0 0z m-1 0l0-2 1 0 0 1c0 1 0 1 0 1 0 0 0 0 0-1l0-1 1 0 0 1c0 1 0 1 0 1 1 0 1 0 1-1l0-1 0 0 0 2c0 0 0 0 0 0-1 0-1 0-1 0 0 0 0 0-1 0 0 0 0 0 0 0l0 0z m0 1l0-3 1 0 0 1c0 1 0 1 0 1 0 0 0 0 1 0 0 0 0-1 0-1l0-1 0 0 0 1c0 1 0 1 0 1 0 0 0 0-1 0 0 0 0 0 0 0l0 1z m2-3l1 0 0 3-1 0 0-2-1 2-1 0 0-3 1 0 0 2z m0 0l0 2 0 0 0-1c0 0-1-1-1-1 0 0 0 1 0 1l0 1-1 0 0-1c0-1 1-1 1-1 0 0 0 0 1 0l0 0z m-1 1l1 0c0 0 1 0 1 1 0 1-1 1-1 1l-2 0 0-3 1 0z m0 1l0 0 0 0c1 0 1 0 1 0 0 0 0 0-1 0z m0 0l-1 0 0-2c0 0 0 0 0 0 0 0 0 0 0 0l0-1c0 0 0 0 0 0 1 0 1 0 1 1z m0 1l-1 0 0-1 1 0z m334-182c-7 0-14-2-20-6-5 4-12 6-20 6-18 0-32-14-32-32 0-18 14-33 32-33 8 0 15 2 20 7 6-5 13-7 20-7 18 0 33 15 33 33-1 18-15 32-33 32z m-40-52c-11 0-19 9-19 20 0 11 8 19 19 19 11 0 20-8 20-19 0-11-9-20-20-20z m40 0c-4 0-8 1-11 3 3 5 4 11 4 17 0 5-1 11-4 16 3 2 7 3 11 3 11 0 19-8 19-19 0-11-8-20-19-20z m-243-79l40 0 0-13-40 0z m72 0l40 0 0-13-40 0z m72 0l40 0 0-13-40 0z m72 0l40 0 0-13-40 0z m-216 105l79 0 0-13-79 0z m0-52l171 0 0-13-171 0z m334 216l-288 0c-18 0-33-15-33-33l0-72-19 0c-18 0-33-15-33-33l0-157c0-18 15-33 33-33l288 0c18 0 33 15 33 33l0 72 19 0c18 0 33 15 33 33l0 157c0 18-15 33-33 33z m-32-295c0-11-9-20-20-20l-288 0c-11 0-20 9-20 20l0 157c0 11 9 20 20 20l288 0c11 0 20-9 20-20z m52 105c0-11-9-20-20-20l-19 0 0 72c0 18-15 33-33 33l-256 0 0 26 328 0z m0 125l-328 0 0 13 328 0z m0 26l-328 0 0 6c0 11 9 20 20 20l288 0c11 0 20-9 20-20z"/>
<glyph glyph-name="customer-service" unicode="&#104;" d="M15 523c0 1 0 2-1 3-1 2-3 3-5 3-5 0-8-4-8-9 0-5 3-9 7-9 5 0 7 3 8 7l-4 0c0-2-1-4-3-4-3 0-5 2-5 6 0 4 2 6 5 6 1 0 2-1 2-1 1-1 1-1 1-2z m-14 1l0-12 4 0 0 7c0 1 1 2 2 2 1 0 1 0 1 0l0 3c0 0 0 0 0 0-1 0-3-1-3-2l0 2z m11-7c0 0 0 1 0 1 0 1 0 2-1 3 0 2-2 3-5 3-3 0-5-2-5-6 0-4 2-7 5-7 3 0 5 2 6 4l-3 0c-1-1-2-1-3-1-1 0-1 0-2 1 0 0 0 1 0 2z m-8 2c0 2 1 3 2 3 1 0 2 0 2-1 0 0 1-1 1-2z m8-7c-1 1-1 1-1 2l0 7c0 2-2 3-5 3-3 0-5-1-5-4l3 0c0 1 1 2 2 2 1 0 2-1 2-1 0-1 0-1 0-1-1-1-1-1-2-1l-2 0c-2 0-3-2-3-4 0-1 0-2 1-2 0-1 1-2 2-2 2 0 3 1 4 2 0 0 0-1 0-1l4 0z m-4 5c0-2-1-3-2-3-2 0-2 1-2 2 0 0 0 1 2 1l1 0c1 1 1 1 1 1z m-1 7l-2 0 0 3-3 0 0-3-2 0 0-2 2 0 0-8c0-2 1-3 3-3 1 0 1 1 2 1l0 2c0 0-1 0-1 0-1 0-1 0-1 1l0 7 2 0z m2-12l3 0 0 17-3 0 0-6c-1 1-2 1-3 1-3 0-5-2-5-6 0-2 0-3 1-5 1-1 2-2 4-2 1 0 2 1 3 2z m-2 10c1 0 2-2 2-4 0-2-1-4-2-4-2 0-3 2-3 4 0 2 1 4 3 4z m-6 7l0-17 4 0 0 1c0-1 1-2 3-2 3 0 5 3 5 7 0 2 0 3-1 4-1 2-3 2-4 2-2 0-3 0-3-1l0 6z m6-7c2 0 3-2 3-4 0-2-1-4-3-4-1 0-2 2-2 4 0 2 1 4 2 4z m2 2l-3-9-2 9-4 0 5-13 0 0c0-1-1-2-2-2 0 0-1 0-1 1l0-3c0 0 1 0 1 0 1 0 2 0 2 0 1 1 2 1 2 3l5 14z m-4-5l8 0 0 3-8 0 0 4 9 0 0 3-12 0 0-17 12 0 0 3-9 0z m7-7l0 12-3 0 0-7c0-2-1-3-2-3-2 0-3 1-3 2l0 8-3 0 0-8c0-3 2-5 4-5 2 0 3 1 4 2l0-1z m-3 12l0-2c-1 2-2 2-3 2-3 0-5-2-5-6 0-4 2-7 5-7 1 0 2 1 3 2l0-1c0-2-1-3-2-3-2 0-2 1-3 2l-3 0c0-1 0-2 1-3 1-1 3-1 4-1 4 0 6 2 6 5l0 12z m-2-2c1 0 2-2 2-4 0-2-1-4-3-4-1 0-2 2-2 4 0 2 1 4 3 4z m-6 2l0-12 4 0 0 7c0 2 1 3 2 3 2 0 2-1 2-2l0-8 3 0 0 8c0 3-1 4-4 4-1 0-2 0-3-2l0 2z m1-12l6 0c3 0 4 1 5 2 2 1 2 4 2 6 0 3 0 5-2 7-1 1-2 2-5 2l-6 0z m3 3l0 11 3 0c3 0 4-2 4-6 0-3-1-5-4-5z m2 9c-4 0-6-2-6-6 0-4 2-7 6-7 4 0 6 3 6 7 0 4-2 6-6 6z m0-2c2 0 3-2 3-4 0-2-1-4-3-4-2 0-3 2-3 4 0 2 1 4 3 4z m-2 2l-3 0 0-12 3 0z m0 5l-3 0 0-3 3 0z m0-10l0 10-4 0 0-17 4 0 0 4 1 1 3-5 3 0-4 8 4 4-3 0z m2 5l-2 0 0 1c0 1 0 1 1 1 0 0 1 0 1 0l0 2c-1 1-1 1-2 1-2 0-3-1-3-4l0-1-2 0 0-2 2 0 0-10 3 0 0 10 2 0z m-6 0l0-12 4 0 0 7c0 2 0 3 2 3 1 0 1-1 1-2l0-8 4 0 0 7c0 2 0 3 2 3 1 0 2-1 2-2l0-8 3 0 0 9c0 2-2 3-4 3-2 0-3 0-4-1 0 1-2 1-3 1-2 0-2 0-3-1l0 1z m1 5l0-17 3 0 0 7c0 2 1 3 2 3 1 0 1 0 2-1 0 0 0-1 0-2l0-7 3 0 0 8c0 2 0 3-1 4-1 0-2 0-3 0-1 0-2 0-3-2l0 7z m10-17l3 0 0 17-3 0 0-12-7 12-3 0 0-17 3 0 0 11z m-7 6l4 0c3 0 5 2 5 5 0 4-2 6-5 6l-7 0 0-17 3 0z m0 3l0 5 3 0c2 0 3-1 3-3 0-1-1-2-3-2z m0 3l-3 0 0-13c0-1-1-1-1-1-1 0-1 0-1 0l0-3c1 0 2 0 2 0 2 0 3 1 3 3z m0 5l-3 0 0-3 3 0z m7-9c0 3-2 4-5 4-4 0-6-2-6-6 0-4 2-7 6-7 2 0 5 2 5 5l-3 0c-1-1-1-2-2-2-2 0-3 1-3 4 0 1 0 2 1 3 0 1 1 1 2 1 1 0 1-1 2-2z m370-194c-8 99-47 130-119 130 0 0-124 0-124-148 0-128-41-117-41-117 0 0 29-25 113-33 1 9 2 18 0 29-13 14-32 38-32 64-19 5-23 18-17 31 59 48 48 113 48 113 20-78 112-100 137-102 0 0 30-18 0-39 0 0 0-1 0-1-1-1-1-2-1-4 0-8-3-15-7-20-6-6-18-10-34-11-3 7-10 12-17 12-11 0-19-8-19-19 0-10 8-18 19-18 8 0 14 5 17 12 13 1 23 3 31 7-5-10-12-18-25-26 0-11 1-20 3-27 82 8 108 33 108 33 0 0-34 34-40 134z"/>
<glyph glyph-name="download" unicode="&#105;" d="M14 522c0 1 0 2-1 3-1 1-3 2-5 2-4 0-7-3-7-8 0-4 3-7 7-7 3 0 6 2 6 5l-3 0c0-2-1-3-3-3-3 0-4 2-4 5 0 4 1 6 4 6 1 0 2-1 2-2 1 0 1 0 1-1z m-13 1l0-11 3 0 0 6c0 2 1 2 3 2 0 0 0 0 1 0l0 3c-1 0-1 0-1 0-1 0-2-1-3-2l0 2z m10-6c0 0 0 0 0 0 0 1 0 2-1 3 0 2-2 3-4 3-4 0-6-2-6-6 0-3 2-5 6-5 2 0 4 1 5 3l-3 0c-1-1-1-1-2-1-1 0-2 0-2 1-1 0-1 1-1 2z m-8 2c1 1 1 2 3 2 0 0 1 0 1-1 1 0 1-1 1-1z m8-7c-1 1-1 1-1 2l0 6c0 2-1 3-4 3-3 0-5-1-5-4l3 0c0 2 0 2 2 2 1 0 1 0 1-1 0-1 0-1 0-1-1 0-1 0-2 0l-1-1c-2 0-3-1-3-3 0-1 0-2 0-2 1-1 2-1 3-1 1 0 2 0 3 1 0 0 0-1 1-1l3 0z m-4 4c0-1-1-2-2-2-1 0-2 0-2 1 0 1 1 1 2 2l1 0c1 0 1 0 1 0z m-1 7l-1 0 0 3-3 0 0-3-2 0 0-2 2 0 0-7c0-2 1-2 3-2 0 0 1 0 1 0l0 2c0 0 0 0 0 0-1 0-1 0-1 1l0 6 1 0z m2-11l3 0 0 15-3 0 0-5c0 1-1 1-3 1-2 0-4-2-4-6 0-1 0-3 1-4 1-1 2-1 3-1 2 0 3 0 3 1z m-2 9c1 0 2-2 2-4 0-2-1-3-2-3-2 0-3 1-3 3 0 2 1 4 3 4z m-5 6l0-15 3 0 0 1c1-1 2-1 3-1 3 0 5 2 5 5 0 2-1 3-1 4-1 2-3 2-4 2-1 0-2 0-3-1l0 5z m6-6c1 0 2-2 2-4 0-2-1-3-2-3-2 0-3 1-3 3 0 2 1 4 3 4z m1 2l-2-8-3 8-3 0 4-11 0-1c0-1 0-1-1-1-1 0-1 0-1 0l0-2c0 0 0 0 1 0 1 0 1 0 2 0 1 0 1 1 1 2l5 13z m2-8l1-3 3 0-5 15-3 0-5-15 3 0 1 3z m-1 3l-3 0 1 5z m-5 9l-3 0 0-15 3 0z m3-9l4 5-4 0-1-3-2 3-4 0 4-5-4-6 4 0 2 3 2-3 3 0z m-2 0l6 0 0 3-6 0 0 3 7 0 0 3-10 0 0-15 3 0z m6-6l0 11-3 0 0-7c0-1-1-2-2-2-1 0-2 1-2 2l0 7-3 0 0-8c0-2 2-3 4-3 1 0 2 0 3 1l0-1z m-5 11l-1 0 0 1c0 1 0 1 0 1 1 0 1 0 1 0l0 2c0 0-1 0-1 0-2 0-3-1-3-3l0-1-2 0 0-2 2 0 0-9 3 0 0 9 1 0z m0 0c-3 0-5-2-5-6 0-3 2-5 5-5 4 0 6 2 6 5 0 4-2 6-6 6z m0-2c2 0 3-1 3-4 0-2-1-3-3-3-1 0-2 1-2 3 0 3 1 4 2 4z m-5 2l0-11 3 0 0 7c0 1 1 2 2 2 1 0 2-1 2-2l0-7 2 0 0 7c0 1 1 2 2 2 1 0 2-1 2-2l0-7 3 0 0 8c0 2-1 3-4 3-1 0-2 0-3-1 0 1-2 1-3 1-1 0-2 0-3-1l0 1z m0 4l0-15 3 0 0 7c0 1 1 2 2 2 1 0 2 0 2-1 0 0 0-1 0-1l0-7 3 0 0 7c0 2 0 3-1 3-1 1-2 1-3 1-1 0-2 0-3-2l0 6z m9-15l4 0 0 15-4 0 0-10-5 10-4 0 0-15 3 0 0 10z m-9 11l0-11 3 0 0 7c0 1 1 2 2 2 2 0 2-1 2-2l0-7 3 0 0 7c0 3-1 4-4 4-1 0-2 0-3-2l0 2z m4-6l3 0c3 0 5 2 5 5 0 3-2 5-5 5l-6 0 0-15 3 0z m0 3l0 4 3 0c1 0 2 0 2-2 0-1-1-2-2-2z m-1 3l-3 0 0-12c0-1 0-1 0-1-1 0-1 0-1 0l0-2c1 0 1 0 2 0 2 0 2 0 2 2z m0 4l-3 0 0-3 3 0z m7-8c-1 3-2 4-5 4-3 0-5-2-5-6 0-3 2-5 5-5 3 0 4 1 5 4l-3 0c0-2-1-2-2-2-2 0-2 1-2 3 0 1 0 2 0 3 0 1 1 1 2 1 1 0 2-1 2-2z m356-249l0-73-222 0 0 73-36 0 0-110 294 0 0 110z m-37 74l-37 0 0 111-74 0 0-111-37 0 74-111z"/>
<glyph glyph-name="facebook" unicode="&#107;" d="M384 509l0-76-45 0c-17 0-28-3-33-10-6-7-9-17-9-31l0-54 84 0-11-85-73 0 0-216-87 0 0 216-73 0 0 85 73 0 0 62c0 36 10 63 29 83 20 19 47 29 80 29 28 0 49-1 65-3z"/>
<glyph glyph-name="twitter" unicode="&#108;" d="M481 395c-13-18-28-34-46-47 0-3 0-7 0-12 0-25-3-50-11-74-7-25-18-49-33-71-14-23-32-43-52-61-21-17-45-31-74-41-29-11-60-16-92-16-52 0-99 14-142 42 7-1 14-2 22-2 43 0 81 14 115 40-20 0-38 6-54 18-16 12-27 27-33 46 7-1 13-2 18-2 8 0 16 1 24 4-21 4-39 15-53 31-14 17-21 37-21 59l0 1c13-7 27-11 42-11-13 8-23 19-30 32-8 14-11 29-11 44 0 17 4 33 12 47 23-28 51-51 84-68 33-17 69-27 107-29-2 8-3 15-3 22 0 25 9 47 27 65 18 18 40 27 66 27 26 0 49-10 67-29 21 4 40 11 59 22-7-22-21-39-41-51 18 2 35 7 53 14z"/>
<glyph glyph-name="instagram" unicode="&#109;" d="M426 105l0 185-39 0c4-12 6-25 6-38 0-24-6-46-18-66-13-20-29-36-50-48-21-12-44-18-69-18-37 0-69 13-96 39-27 26-40 57-40 93 0 13 2 26 6 38l-41 0 0-185c0-5 2-10 5-13 4-3 8-5 13-5l305 0c5 0 9 2 13 5 3 3 5 8 5 13z m-81 152c0 23-9 44-26 60-18 17-38 25-63 25-24 0-45-8-62-25-17-16-26-37-26-60 0-24 9-44 26-61 17-16 38-25 62-25 25 0 45 9 63 25 17 17 26 37 26 61z m81 103l0 47c0 5-2 10-6 14-4 4-8 6-14 6l-50 0c-5 0-10-2-14-6-4-4-5-9-5-14l0-47c0-6 1-10 5-14 4-4 9-6 14-6l50 0c6 0 10 2 14 6 4 4 6 8 6 14z m49 59l0-326c0-16-5-29-16-40-11-11-24-16-40-16l-326 0c-16 0-29 5-40 16-11 11-16 24-16 40l0 326c0 16 5 29 16 40 11 11 24 16 40 16l326 0c16 0 29-5 40-16 11-11 16-24 16-40z"/>
<glyph glyph-name="expand" unicode="&#111;" d="M14 522c0 1 0 2-1 3-1 1-3 2-5 2-4 0-7-3-7-8 0-4 3-7 7-7 3 0 6 2 6 5l-3 0c0-2-1-3-3-3-3 0-4 2-4 5 0 4 1 6 4 6 1 0 2-1 2-2 1 0 1 0 1-1z m-13 1l0-11 3 0 0 6c0 2 1 2 3 2 0 0 0 0 1 0l0 3c-1 0-1 0-1 0-1 0-2-1-3-2l0 2z m10-6c0 0 0 0 0 0 0 1 0 2-1 3 0 2-2 3-4 3-4 0-6-2-6-6 0-3 2-5 6-5 2 0 4 1 5 3l-3 0c-1-1-1-1-2-1-1 0-2 0-2 1-1 0-1 1-1 2z m-8 2c1 1 1 2 3 2 0 0 1 0 1-1 1 0 1-1 1-1z m8-7c-1 1-1 1-1 2l0 6c0 2-1 3-4 3-3 0-5-1-5-4l3 0c0 2 0 2 2 2 1 0 1 0 1-1 0-1 0-1 0-1-1 0-1 0-2 0l-1-1c-2 0-3-1-3-3 0-1 0-2 0-2 1-1 2-1 3-1 1 0 2 0 3 1 0 0 0-1 1-1l3 0z m-4 4c0-1-1-2-2-2-1 0-2 0-2 1 0 1 1 1 2 2l1 0c1 0 1 0 1 0z m-1 7l-1 0 0 3-3 0 0-3-2 0 0-2 2 0 0-7c0-2 1-2 3-2 0 0 1 0 1 0l0 2c0 0 0 0 0 0-1 0-1 0-1 1l0 6 1 0z m2-11l3 0 0 15-3 0 0-5c0 1-1 1-3 1-2 0-4-2-4-6 0-1 0-3 1-4 1-1 2-1 3-1 2 0 3 0 3 1z m-2 9c1 0 2-2 2-4 0-2-1-3-2-3-2 0-3 1-3 3 0 2 1 4 3 4z m-5 6l0-15 3 0 0 1c1-1 2-1 3-1 3 0 5 2 5 5 0 2-1 3-1 4-1 2-3 2-4 2-1 0-2 0-3-1l0 5z m6-6c1 0 2-2 2-4 0-2-1-3-2-3-2 0-3 1-3 3 0 2 1 4 3 4z m1 2l-2-8-3 8-3 0 4-11 0-1c0-1 0-1-1-1-1 0-1 0-1 0l0-2c0 0 0 0 1 0 1 0 1 0 2 0 1 0 1 1 1 2l5 13z m7-3l-6 0 0-3 3 0c0 0 0-1-1-1 0-1-2-2-3-2-2 0-4 2-4 5 0 4 2 6 4 6 1 0 2-1 3-1 0-1 0-1 1-2l3 0c-1 3-3 5-7 5-4 0-7-3-7-8 0-4 3-7 7-7 2 0 3 0 4 2l1-2 2 0z m-4-8l0 11-3 0 0-7c0-1-1-2-2-2-1 0-2 1-2 2l0 7-3 0 0-8c0-2 2-3 4-3 1 0 2 0 3 1l0-1z m-7 11l-3 0 0-11 3 0z m0 4l-3 0 0-3 3 0z m0 0l-3 0 0-15 3 0z m-3 0l0-15 3 0 0 7c0 1 1 2 2 2 1 0 2 0 2-1 0 0 0-1 0-1l0-7 3 0 0 7c0 2 0 3-1 3-1 1-2 1-3 1-1 0-2 0-3-2l0 6z m0-4l0-11 3 0 0 7c0 1 1 2 2 2 1 0 2-1 2-2l0-7 2 0 0 7c0 1 1 2 2 2 1 0 2-1 2-2l0-7 3 0 0 8c0 2-1 3-4 3-1 0-2 0-3-1 0 1-2 1-3 1-1 0-2 0-3-1l0 1z m5 0l-1 0 0 1c0 1 0 1 0 1 1 0 1 0 1 0l0 2c0 0-1 0-1 0-2 0-3-1-3-3l0-1-2 0 0-2 2 0 0-9 3 0 0 9 1 0z m0 0c-3 0-5-2-5-6 0-3 2-5 5-5 4 0 6 2 6 5 0 4-2 6-6 6z m0-2c2 0 3-1 3-4 0-2-1-3-3-3-1 0-2 1-2 3 0 3 1 4 2 4z m4-9l4 0 0 15-4 0 0-10-5 10-4 0 0-15 3 0 0 10z m-9 11l0-11 3 0 0 7c0 1 1 2 2 2 2 0 2-1 2-2l0-7 3 0 0 7c0 3-1 4-4 4-1 0-2 0-3-2l0 2z m4-6l3 0c3 0 5 2 5 5 0 3-2 5-5 5l-6 0 0-15 3 0z m0 3l0 4 3 0c1 0 2 0 2-2 0-1-1-2-2-2z m-1 3l-3 0 0-12c0-1 0-1 0-1-1 0-1 0-1 0l0-2c1 0 1 0 2 0 2 0 2 0 2 2z m0 4l-3 0 0-3 3 0z m7-8c-1 3-2 4-5 4-3 0-5-2-5-6 0-3 2-5 5-5 3 0 4 1 5 4l-3 0c0-2-1-2-2-2-2 0-2 1-2 3 0 1 0 2 0 3 0 1 1 1 2 1 1 0 2-1 2-2z m220-120l-67 0 0-66 17 0 0 38 43-43 11 12-42 43 38 0z m50-184l67 0 0 67-17 0 0-38-43 42-11-11 42-43-38 0z"/>
<glyph glyph-name="information" unicode="&#112;" d="M14 522c0 1 0 2-1 3-1 1-3 2-5 2-4 0-7-3-7-8 0-4 3-7 7-7 3 0 6 2 6 5l-3 0c0-2-1-3-3-3-3 0-4 2-4 5 0 4 1 6 4 6 1 0 2-1 2-2 1 0 1 0 1-1z m-13 1l0-11 3 0 0 6c0 2 1 2 3 2 0 0 0 0 1 0l0 3c-1 0-1 0-1 0-1 0-2-1-3-2l0 2z m10-6c0 0 0 0 0 0 0 1 0 2-1 3 0 2-2 3-4 3-4 0-6-2-6-6 0-3 2-5 6-5 2 0 4 1 5 3l-3 0c-1-1-1-1-2-1-1 0-2 0-2 1-1 0-1 1-1 2z m-8 2c1 1 1 2 3 2 0 0 1 0 1-1 1 0 1-1 1-1z m8-7c-1 1-1 1-1 2l0 6c0 2-1 3-4 3-3 0-5-1-5-4l3 0c0 2 0 2 2 2 1 0 1 0 1-1 0-1 0-1 0-1-1 0-1 0-2 0l-1-1c-2 0-3-1-3-3 0-1 0-2 0-2 1-1 2-1 3-1 1 0 2 0 3 1 0 0 0-1 1-1l3 0z m-4 4c0-1-1-2-2-2-1 0-2 0-2 1 0 1 1 1 2 2l1 0c1 0 1 0 1 0z m-1 7l-1 0 0 3-3 0 0-3-2 0 0-2 2 0 0-7c0-2 1-2 3-2 0 0 1 0 1 0l0 2c0 0 0 0 0 0-1 0-1 0-1 1l0 6 1 0z m2-11l3 0 0 15-3 0 0-5c0 1-1 1-3 1-2 0-4-2-4-6 0-1 0-3 1-4 1-1 2-1 3-1 2 0 3 0 3 1z m-2 9c1 0 2-2 2-4 0-2-1-3-2-3-2 0-3 1-3 3 0 2 1 4 3 4z m-5 6l0-15 3 0 0 1c1-1 2-1 3-1 3 0 5 2 5 5 0 2-1 3-1 4-1 2-3 2-4 2-1 0-2 0-3-1l0 5z m6-6c1 0 2-2 2-4 0-2-1-3-2-3-2 0-3 1-3 3 0 2 1 4 3 4z m1 2l-2-8-3 8-3 0 4-11 0-1c0-1 0-1-1-1-1 0-1 0-1 0l0-2c0 0 0 0 1 0 1 0 1 0 2 0 1 0 1 1 1 2l5 13z m7-3l-6 0 0-3 3 0c0 0 0-1-1-1 0-1-2-2-3-2-2 0-4 2-4 5 0 4 2 6 4 6 1 0 2-1 3-1 0-1 0-1 1-2l3 0c-1 3-3 5-7 5-4 0-7-3-7-8 0-4 3-7 7-7 2 0 3 0 4 2l1-2 2 0z m-9 3c-3 0-5-2-5-6 0-3 2-5 5-5 4 0 6 2 6 5 0 4-2 6-6 6z m0-2c2 0 3-1 3-4 0-2-1-3-3-3-1 0-2 1-2 3 0 3 1 4 2 4z m-5 2l0-11 3 0 0 7c0 1 1 2 2 2 2 0 2-1 2-2l0-7 3 0 0 7c0 3-1 4-4 4-1 0-2 0-3-2l0 2z m8 0l-8 0 0-2 5 0-6-7 0-2 10 0 0 2-6 0 5 7z m-5 4l-3 0 0-15 3 0z m-2-15l6 0c2 0 3 0 4 1 1 1 2 2 2 3 0 2-1 3-3 4 2 1 2 2 2 3 0 1 0 2-1 3-1 1-2 1-4 1l-6 0z m3 12l3 0c2 0 2 0 2-1 0-1 0-2-2-2l-3 0z m0-6l3 0c2 0 3 0 3-2 0-1-1-1-3-1l-3 0z m2-6l4 11-3 0-2-8-3 8-3 0 4-11z m-1 11l-1 0 0 1c0 1 0 1 0 1 1 0 1 0 1 0l0 2c0 0-1 0-1 0-2 0-3-1-3-3l0-1-2 0 0-2 2 0 0-9 3 0 0 9 1 0z m-5 0l0-11 3 0 0 7c0 1 1 2 2 2 1 0 2-1 2-2l0-7 2 0 0 7c0 1 1 2 2 2 1 0 2-1 2-2l0-7 3 0 0 8c0 2-1 3-4 3-1 0-2 0-3-1 0 1-2 1-3 1-1 0-2 0-3-1l0 1z m0 4l0-15 3 0 0 7c0 1 1 2 2 2 1 0 2 0 2-1 0 0 0-1 0-1l0-7 3 0 0 7c0 2 0 3-1 3-1 1-2 1-3 1-1 0-2 0-3-2l0 6z m9-15l4 0 0 15-4 0 0-10-5 10-4 0 0-15 3 0 0 10z m1 0l0 11-3 0 0-7c0-1-1-2-2-2-1 0-2 1-2 2l0 7-3 0 0-8c0-2 2-3 4-3 1 0 2 0 3 1l0-1z m-6 5l3 0c3 0 5 2 5 5 0 3-2 5-5 5l-6 0 0-15 3 0z m0 3l0 4 3 0c1 0 2 0 2-2 0-1-1-2-2-2z m-1 3l-3 0 0-12c0-1 0-1 0-1-1 0-1 0-1 0l0-2c1 0 1 0 2 0 2 0 2 0 2 2z m0 4l-3 0 0-3 3 0z m7-8c-1 3-2 4-5 4-3 0-5-2-5-6 0-3 2-5 5-5 3 0 4 1 5 4l-3 0c0-2-1-2-2-2-2 0-2 1-2 3 0 1 0 2 0 3 0 1 1 1 2 1 1 0 2-1 2-2z m429-212c0-102-82-184-184-184-102 0-184 82-184 184 0 102 82 185 184 185 102 0 184-83 184-185z m-161 122c8 0 14-2 19-7 4-5 7-11 7-18 0-7-3-13-8-18-4-5-10-7-18-7-6 0-12 2-17 7-5 5-8 11-8 18 0 7 3 13 8 18 5 5 10 7 17 7z m11-79l-35-123c-2-7-3-11-3-14 0-1 0-2 1-3 1-1 3-2 4-2 2 0 4 1 6 3 5 4 11 12 18 23l6-4c-17-30-36-45-55-45-8 0-14 2-18 6-5 5-7 10-7 16 0 5 1 10 3 17l24 82c2 8 4 14 4 18 0 3-2 5-4 7-2 2-5 3-9 3-1 0-4 0-6 0l2 6 59 10z"/>
<glyph glyph-name="information-outline" unicode="&#113;" d="M14 522c0 1 0 2-1 3-1 1-3 2-5 2-4 0-7-3-7-8 0-4 3-7 7-7 3 0 6 2 6 5l-3 0c0-2-1-3-3-3-3 0-4 2-4 5 0 4 1 6 4 6 1 0 2-1 2-2 1 0 1 0 1-1z m-13 1l0-11 3 0 0 6c0 2 1 2 3 2 0 0 0 0 1 0l0 3c-1 0-1 0-1 0-1 0-2-1-3-2l0 2z m10-6c0 0 0 0 0 0 0 1 0 2-1 3 0 2-2 3-4 3-4 0-6-2-6-6 0-3 2-5 6-5 2 0 4 1 5 3l-3 0c-1-1-1-1-2-1-1 0-2 0-2 1-1 0-1 1-1 2z m-8 2c1 1 1 2 3 2 0 0 1 0 1-1 1 0 1-1 1-1z m8-7c-1 1-1 1-1 2l0 6c0 2-1 3-4 3-3 0-5-1-5-4l3 0c0 2 0 2 2 2 1 0 1 0 1-1 0-1 0-1 0-1-1 0-1 0-2 0l-1-1c-2 0-3-1-3-3 0-1 0-2 0-2 1-1 2-1 3-1 1 0 2 0 3 1 0 0 0-1 1-1l3 0z m-4 4c0-1-1-2-2-2-1 0-2 0-2 1 0 1 1 1 2 2l1 0c1 0 1 0 1 0z m-1 7l-1 0 0 3-3 0 0-3-2 0 0-2 2 0 0-7c0-2 1-2 3-2 0 0 1 0 1 0l0 2c0 0 0 0 0 0-1 0-1 0-1 1l0 6 1 0z m2-11l3 0 0 15-3 0 0-5c0 1-1 1-3 1-2 0-4-2-4-6 0-1 0-3 1-4 1-1 2-1 3-1 2 0 3 0 3 1z m-2 9c1 0 2-2 2-4 0-2-1-3-2-3-2 0-3 1-3 3 0 2 1 4 3 4z m-5 6l0-15 3 0 0 1c1-1 2-1 3-1 3 0 5 2 5 5 0 2-1 3-1 4-1 2-3 2-4 2-1 0-2 0-3-1l0 5z m6-6c1 0 2-2 2-4 0-2-1-3-2-3-2 0-3 1-3 3 0 2 1 4 3 4z m1 2l-2-8-3 8-3 0 4-11 0-1c0-1 0-1-1-1-1 0-1 0-1 0l0-2c0 0 0 0 1 0 1 0 1 0 2 0 1 0 1 1 1 2l5 13z m7-3l-6 0 0-3 3 0c0 0 0-1-1-1 0-1-2-2-3-2-2 0-4 2-4 5 0 4 2 6 4 6 1 0 2-1 3-1 0-1 0-1 1-2l3 0c-1 3-3 5-7 5-4 0-7-3-7-8 0-4 3-7 7-7 2 0 3 0 4 2l1-2 2 0z m-7 3l0-2c0 2-1 2-3 2-2 0-4-2-4-6 0-3 2-5 4-5 2 0 2 0 3 1l0-1c0-2-1-3-2-3-1 0-2 1-2 2l-3 0c0-1 0-2 1-2 1-1 2-1 4-1 3 0 5 1 5 4l0 11z m-2-2c1 0 2-2 2-4 0-2-1-3-2-3-1 0-2 1-2 3 0 2 1 4 2 4z m0 2c-3 0-5-2-5-6 0-3 2-5 5-5 4 0 6 2 6 5 0 4-2 6-6 6z m0-2c2 0 3-1 3-4 0-2-1-3-3-3-1 0-2 1-2 3 0 3 1 4 2 4z m8 1c0 1 0 2-1 3-1 1-3 2-5 2-4 0-7-3-7-8 0-4 3-7 7-7 3 0 6 2 6 5l-3 0c0-2-1-3-3-3-3 0-4 2-4 5 0 4 1 6 4 6 1 0 2-1 2-2 1 0 1 0 1-1z m-5 6l2 3-2 0-1-2-2 2-2 0 3-3z m1-8c0 2-1 3-4 3-3 0-5-1-5-3 0-1 0-2 1-2 0-1 0-1 1-1l4-1c1 0 1-1 1-1 0-1-1-1-2-1-1 0-2 0-2 0 0 0 0 1-1 1l-2 0c0-2 1-3 5-3 1 0 3 0 3 1 1 0 2 1 2 2 0 2-1 3-3 3l-3 1c-1 0-1 1-1 1 0 1 1 1 2 1 1 0 2 0 2-1z m-3 4l2 4-2 0-1-2-2 2-1 0 2-4z m-6-1l0-11 3 0 0 7c0 1 1 2 2 2 2 0 2-1 2-2l0-7 3 0 0 7c0 3-1 4-4 4-1 0-2 0-3-2l0 2z m5 0l-1 0 0 1c0 1 0 1 0 1 1 0 1 0 1 0l0 2c0 0-1 0-1 0-2 0-3-1-3-3l0-1-2 0 0-2 2 0 0-9 3 0 0 9 1 0z m-5 0l0-11 3 0 0 7c0 1 1 2 2 2 1 0 2-1 2-2l0-7 2 0 0 7c0 1 1 2 2 2 1 0 2-1 2-2l0-7 3 0 0 8c0 2-1 3-4 3-1 0-2 0-3-1 0 1-2 1-3 1-1 0-2 0-3-1l0 1z m0 4l0-15 3 0 0 7c0 1 1 2 2 2 1 0 2 0 2-1 0 0 0-1 0-1l0-7 3 0 0 7c0 2 0 3-1 3-1 1-2 1-3 1-1 0-2 0-3-2l0 6z m9-15l4 0 0 15-4 0 0-10-5 10-4 0 0-15 3 0 0 10z m1 0l0 11-3 0 0-7c0-1-1-2-2-2-1 0-2 1-2 2l0 7-3 0 0-8c0-2 2-3 4-3 1 0 2 0 3 1l0-1z m-6 5l3 0c3 0 5 2 5 5 0 3-2 5-5 5l-6 0 0-15 3 0z m0 3l0 4 3 0c1 0 2 0 2-2 0-1-1-2-2-2z m-1 3l-3 0 0-12c0-1 0-1 0-1-1 0-1 0-1 0l0-2c1 0 1 0 2 0 2 0 2 0 2 2z m0 4l-3 0 0-3 3 0z m7-8c-1 3-2 4-5 4-3 0-5-2-5-6 0-3 2-5 5-5 3 0 4 1 5 4l-3 0c0-2-1-2-2-2-2 0-2 1-2 3 0 1 0 2 0 3 0 1 1 1 2 1 1 0 2-1 2-2z m120-87c-66-66-68-172-7-241l2-2c-7-14-18-32-36-41-6-3-5-12 2-13 19-3 48 1 75 21l0-1c68-39 156-30 214 28 68 68 68 180 0 249-69 69-181 69-250 0z m125-259c-74 0-134 60-134 134 0 74 60 135 134 135 74 0 134-61 134-135 0-74-60-134-134-134z m37 67c0-2-1-4-3-6-8-8-18-13-30-13-6 0-11 0-17 1-9 1-21 12-19 24 1 8 2 17 3 25 3 14 5 28 8 43 0 1 0 1 0 3 0 6-2 8-8 9-2 0-5 0-7 1-3 1-4 3-4 6 0 2 2 4 5 4 1 1 3 1 5 1 7 0 14 0 21 0 7 0 15 0 22 0 5 0 9-3 9-8 0-5-1-9-2-13-3-17-6-33-9-49-1-5-2-11-3-17 0-2 0-5 1-7 1-4 3-6 7-5 3 0 6 1 9 2 2 1 4 3 6 4 4 0 7-2 6-5z m-55 131c0 13 10 23 23 23 12 0 22-10 22-23 0-13-10-23-22-23-13 0-23 10-23 23z"/>
<glyph glyph-name="like" unicode="&#114;" d="M7 517c0 1 0 1-1 1 0 1-1 2-2 2-2 0-4-2-4-4 0-3 2-4 4-4 2 0 3 1 3 3l-1 0c-1-1-1-2-2-2-1 0-2 1-2 3 0 1 1 2 2 2 0 0 1 0 1 0 0 0 0-1 1-1z m-6 1l0-6 1 0 0 3c0 1 1 1 1 1 0 0 1 0 1 0l0 2c0 0 0 0 0 0-1 0-2-1-2-2l0 2z m4-4c0 0 0 0 0 1 0 0 0 1 0 1 0 1-1 2-2 2-2 0-3-2-3-3 0-2 1-3 3-3 1 0 2 0 2 2l-1 0c0-1-1-1-1-1-1 0-1 0-1 0 0 1 0 1 0 1z m-3 1c0 1 0 2 1 2 0 0 0-1 1-1 0 0 0 0 0-1z m3-3c0 0 0 1 0 1l0 3c0 1-1 2-2 2-2 0-2-1-3-2l2 0c0 0 0 0 1 0 0 0 1 0 1 0 0 0 0 0-1-1 0 0 0 0-1 0l0 0c-1 0-2-1-2-2 0 0 0 0 1-1 0 0 0 0 1 0 1 0 1 0 2 1 0-1 0-1 0-1l1 0z m-1 2c0-1-1-1-1-1-1 0-1 0-1 1 0 0 0 0 1 0l0 0c0 1 0 1 1 1z m-1 3l-1 0 0 2-1 0 0-2-1 0 0-1 1 0 0-3c0-1 0-1 1-1 1 0 1 0 1 0l0 1c0 0 0 0 0 0-1 0-1 0-1 0l0 3 1 0z m1-5l2 0 0 7-2 0 0-2c0 0-1 1-1 1-2 0-3-2-3-3 0-1 1-2 1-2 0-1 1-1 2-1 0 0 1 0 1 1z m-1 4c1 0 1 0 1-1 0-1 0-2-1-2-1 0-1 1-1 2 0 1 0 1 1 1z m-2 3l0-7 1 0 0 1c0-1 1-1 2-1 1 0 2 1 2 3 0 0 0 1-1 2 0 0-1 1-1 1-1 0-2-1-2-1l0 2z m2-3c1 0 1 0 1-1 0-1 0-2-1-2 0 0-1 1-1 2 0 1 1 1 1 1z m1 2l-1-4-1 4-2 0 2-6 0 0c0-1 0-1-1-1 0 0 0 0 0 0l0-1c0 0 0 0 0 0 1 0 1 0 1 0 1 0 1 0 1 1l3 7z m-2-3l2 0c1 0 1 0 1-1 0 0 0 0 0 0 0 0 0-1 0-1 0 0 0-1 0-1l2 0 0 0c0 0 0 1 0 1 0 2 0 2-1 3 0 0 1 1 1 1 0 1 0 2-1 2 0 0-1 0-1 0l-4 0 0-7 1 0z m0 1l0 2 2 0c1 0 1 0 1 0 0 0 0 0 0-1 0 0 0 0 0-1 0 0 0 0-1 0z m0 2l-1 0 0-6 1 0z m0 1l-1 0 0-1 1 0z m3-4c0 2-1 3-2 3-2 0-3-1-3-3 0-2 1-3 3-3 1 0 2 1 2 2l-1 0c0-1 0-1-1-1-1 0-1 1-1 2 0 0 0 1 0 1 0 0 1 0 1 0 1 0 1 0 1-1z m-4 4l0-7 1 0 0 3c0 1 1 1 1 1 1 0 1 0 1 0 0 0 0 0 0-1l0-3 2 0 0 4c0 0-1 1-1 1 0 0-1 1-1 1-1 0-1-1-2-1l0 2z m5-2c0 1 0 1 0 2-1 0-2 1-3 1-1 0-3-1-3-3 0-1 1-1 3-2l1 0c1 0 1 0 1-1 0-1-1-1-1-1-2 0-2 0-2 1l-2 0c0-1 2-2 3-2 2 0 3 1 3 2 0 1 0 2-1 2l-2 0c-1 1-1 1-1 1 0 1 0 1 1 1 1 0 2 0 2-1z m0-5l0 6-2 0 0-4c0-1 0-1-1-1-1 0-1 0-1 1l0 4-1 0 0-4c0-2 0-2 1-2 1 0 2 0 2 1l0-1z m-5 6l0-6 1 0 0 3c0 1 0 1 1 1 1 0 1 0 1 0l0-4 1 0 0 3c0 1 1 1 1 1 1 0 1 0 1 0l0-4 1 0 0 4c0 1 0 2-1 2-1 0-2-1-2-1 0 0-1 1-1 1-1 0-1-1-2-1l0 1z m0 0l0-6 1 0 0 3c0 1 1 1 1 1 1 0 1 0 1-1l0-3 2 0 0 4c0 1-1 2-2 2-1 0-2-1-2-1l0 1z m2-1l-1 0 0 1c0 0 0 0 1 0 0 0 0 0 0 0l0 1c0 0 0 0-1 0-1 0-1 0-1-1l0-1-1 0 0-1 1 0 0-4 1 0 0 4 1 0z m0 1c-2 0-3-1-3-3 0-2 1-3 3-3 2 0 3 1 3 3 0 2-1 3-3 3z m0-2c1 0 1 0 1-1 0-1 0-2-1-2-1 0-1 1-1 2 0 1 0 1 1 1z m2-4l2 0 0 7-2 0 0-5-3 5-1 0 0-7 1 0 0 5z m-3 3l2 0c2 0 2 1 2 2 0 2 0 2-2 2l-3 0 0-7 1 0z m0 1l0 2 2 0c1 0 1 0 1-1 0-1 0-1-1-1z m0 2l-1 0 0-7c0 0 0 0-1 0 0 0 0 0 0 0l0-1c0 0 1 0 1 0 1 0 1 0 1 1z m0 1l-1 0 0-1 1 0z m57-181l101 0 0-209-101 0z m353 12c-25 0-57 0-57 0 0 25 0 78-3 101-6 33-18 33-32 33-25 0-27-35-39-84-11-44-64-78-99-84l0-162c25 0 38 0 62 0 25 0 12-25 37-25 25 0 49 0 111 0 61 0 61 62 61 62 0 0 0 94 0 118 0 24-17 41-41 41z"/>
<glyph glyph-name="map-marker-outline" unicode="&#115;" d="M14 522c0 1 0 2-1 3-1 1-3 2-5 2-4 0-7-3-7-8 0-4 3-7 7-7 3 0 6 2 6 5l-3 0c0-2-1-3-3-3-3 0-4 2-4 5 0 4 1 6 4 6 1 0 2-1 2-2 1 0 1 0 1-1z m-13 1l0-11 3 0 0 6c0 2 1 2 3 2 0 0 0 0 1 0l0 3c-1 0-1 0-1 0-1 0-2-1-3-2l0 2z m10-6c0 0 0 0 0 0 0 1 0 2-1 3 0 2-2 3-4 3-4 0-6-2-6-6 0-3 2-5 6-5 2 0 4 1 5 3l-3 0c-1-1-1-1-2-1-1 0-2 0-2 1-1 0-1 1-1 2z m-8 2c1 1 1 2 3 2 0 0 1 0 1-1 1 0 1-1 1-1z m8-7c-1 1-1 1-1 2l0 6c0 2-1 3-4 3-3 0-5-1-5-4l3 0c0 2 0 2 2 2 1 0 1 0 1-1 0-1 0-1 0-1-1 0-1 0-2 0l-1-1c-2 0-3-1-3-3 0-1 0-2 0-2 1-1 2-1 3-1 1 0 2 0 3 1 0 0 0-1 1-1l3 0z m-4 4c0-1-1-2-2-2-1 0-2 0-2 1 0 1 1 1 2 2l1 0c1 0 1 0 1 0z m-1 7l-1 0 0 3-3 0 0-3-2 0 0-2 2 0 0-7c0-2 1-2 3-2 0 0 1 0 1 0l0 2c0 0 0 0 0 0-1 0-1 0-1 1l0 6 1 0z m2-11l3 0 0 15-3 0 0-5c0 1-1 1-3 1-2 0-4-2-4-6 0-1 0-3 1-4 1-1 2-1 3-1 2 0 3 0 3 1z m-2 9c1 0 2-2 2-4 0-2-1-3-2-3-2 0-3 1-3 3 0 2 1 4 3 4z m-5 6l0-15 3 0 0 1c1-1 2-1 3-1 3 0 5 2 5 5 0 2-1 3-1 4-1 2-3 2-4 2-1 0-2 0-3-1l0 5z m6-6c1 0 2-2 2-4 0-2-1-3-2-3-2 0-3 1-3 3 0 2 1 4 3 4z m1 2l-2-8-3 8-3 0 4-11 0-1c0-1 0-1-1-1-1 0-1 0-1 0l0-2c0 0 0 0 1 0 1 0 1 0 2 0 1 0 1 1 1 2l5 13z m-6-11l5 0c3 0 4 1 5 2 1 1 2 3 2 5 0 3-1 5-2 6-1 1-2 2-5 2l-5 0z m3 3l0 9 2 0c3 0 4-1 4-5 0-3-1-4-4-4z m5 5c0 2-1 3-4 3-3 0-5-1-5-3 0-1 0-2 1-2 0-1 0-1 1-1l4-1c1 0 1-1 1-1 0-1-1-1-2-1-1 0-2 0-2 0 0 0 0 1-1 1l-2 0c0-2 1-3 5-3 1 0 3 0 3 1 1 0 2 1 2 2 0 2-1 3-3 3l-3 1c-1 0-1 1-1 1 0 1 1 1 2 1 1 0 2 0 2-1z m-6 3l-3 0 0-11 3 0z m0 4l-3 0 0-3 3 0z m4-4l0-2c0 2-1 2-3 2-2 0-4-2-4-6 0-3 2-5 4-5 2 0 2 0 3 1l0-1c0-2-1-3-2-3-1 0-2 1-2 2l-3 0c0-1 0-2 1-2 1-1 2-1 4-1 3 0 5 1 5 4l0 11z m-2-2c1 0 2-2 2-4 0-2-1-3-2-3-1 0-2 1-2 3 0 2 1 4 2 4z m-5 2l0-11 3 0 0 7c0 1 1 2 2 2 2 0 2-1 2-2l0-7 3 0 0 7c0 3-1 4-4 4-1 0-2 0-3-2l0 2z m5 0l-1 0 0 1c0 1 0 1 0 1 1 0 1 0 1 0l0 2c0 0-1 0-1 0-2 0-3-1-3-3l0-1-2 0 0-2 2 0 0-9 3 0 0 9 1 0z m-2-8l-3 0 0-3 3 0z m-3 8l0-11 3 0 0 7c0 1 1 2 2 2 1 0 2-1 2-2l0-7 2 0 0 7c0 1 1 2 2 2 1 0 2-1 2-2l0-7 3 0 0 8c0 2-1 3-4 3-1 0-2 0-3-1 0 1-2 1-3 1-1 0-2 0-3-1l0 1z m5 0c-3 0-5-2-5-6 0-3 2-5 5-5 4 0 6 2 6 5 0 4-2 6-6 6z m0-2c2 0 3-1 3-4 0-2-1-3-3-3-1 0-2 1-2 3 0 3 1 4 2 4z m-5 6l0-15 3 0 0 7c0 1 1 2 2 2 1 0 2 0 2-1 0 0 0-1 0-1l0-7 3 0 0 7c0 2 0 3-1 3-1 1-2 1-3 1-1 0-2 0-3-2l0 6z m9-15l4 0 0 15-4 0 0-10-5 10-4 0 0-15 3 0 0 10z m1 0l0 11-3 0 0-7c0-1-1-2-2-2-1 0-2 1-2 2l0 7-3 0 0-8c0-2 2-3 4-3 1 0 2 0 3 1l0-1z m-6 5l3 0c3 0 5 2 5 5 0 3-2 5-5 5l-6 0 0-15 3 0z m0 3l0 4 3 0c1 0 2 0 2-2 0-1-1-2-2-2z m-1 3l-3 0 0-12c0-1 0-1 0-1-1 0-1 0-1 0l0-2c1 0 1 0 2 0 2 0 2 0 2 2z m0 4l-3 0 0-3 3 0z m7-8c-1 3-2 4-5 4-3 0-5-2-5-6 0-3 2-5 5-5 3 0 4 1 5 4l-3 0c0-2-1-2-2-2-2 0-2 1-2 3 0 1 0 2 0 3 0 1 1 1 2 1 1 0 2-1 2-2z m310-154c0 36-29 65-65 65-36 0-65-29-65-65 0-36 29-65 65-65 36 0 65 29 65 65z m-122 0c0 31 26 57 57 57 31 0 57-26 57-57 0-31-26-57-57-57-31 0-57 26-57 57z m194-215c0-21-90-27-137-27-47 0-137 6-137 27 0 12 24 20 71 25 2 0 4-2 5-4 0-2-2-4-4-5-53-5-64-14-64-16 0-6 46-19 129-19 83 0 129 13 129 19 0 2-12 11-65 16-2 1-3 3-3 5 0 2 2 4 4 4 48-5 72-13 72-25z m-139-3c1-1 2-2 3-2 0 0 0 0 0 0 1 0 2 1 3 2l7 8c4 6 116 144 116 211 0 69-57 126-126 126-69 0-126-57-126-126 0-65 105-196 117-211z m3 336c65 0 118-52 118-117 0-64-110-200-115-206l-3-4-3 4c-5 6-115 142-115 206 0 65 53 117 118 117z"/>
<glyph glyph-name="map-marker" unicode="&#116;" d="M256 478c-67 0-119-53-119-120 0-66 119-221 119-221 0 0 119 155 119 221 0 67-52 120-119 120z m0-171c-29 0-51 22-51 51 0 29 22 52 51 52 29 0 51-23 51-52 0-29-22-51-51-51z"/>
<glyph glyph-name="envelope" unicode="&#118;" d="M47 465c-23 0-42-15-46-36l255-255 255 255c-4 21-23 36-46 36l-418 0m-47-68l0-287 143 143-143 144m512 0l-141-141 141-142 0 283m-158-158l-90-90c-4-5-12-5-16 0l-88 88-158-158c6-19 24-32 45-32l418 0c23 0 41 15 46 36l-157 156"/>
<glyph glyph-name="mouse" unicode="&#119;" d="M14 522c0 1 0 2-1 3-1 1-3 2-5 2-4 0-7-3-7-8 0-4 3-7 7-7 3 0 6 2 6 5l-3 0c0-2-1-3-3-3-3 0-4 2-4 5 0 4 1 6 4 6 1 0 2-1 2-2 1 0 1 0 1-1z m-13 1l0-11 3 0 0 6c0 2 1 2 3 2 0 0 0 0 1 0l0 3c-1 0-1 0-1 0-1 0-2-1-3-2l0 2z m10-6c0 0 0 0 0 0 0 1 0 2-1 3 0 2-2 3-4 3-4 0-6-2-6-6 0-3 2-5 6-5 2 0 4 1 5 3l-3 0c-1-1-1-1-2-1-1 0-2 0-2 1-1 0-1 1-1 2z m-8 2c1 1 1 2 3 2 0 0 1 0 1-1 1 0 1-1 1-1z m8-7c-1 1-1 1-1 2l0 6c0 2-1 3-4 3-3 0-5-1-5-4l3 0c0 2 0 2 2 2 1 0 1 0 1-1 0-1 0-1 0-1-1 0-1 0-2 0l-1-1c-2 0-3-1-3-3 0-1 0-2 0-2 1-1 2-1 3-1 1 0 2 0 3 1 0 0 0-1 1-1l3 0z m-4 4c0-1-1-2-2-2-1 0-2 0-2 1 0 1 1 1 2 2l1 0c1 0 1 0 1 0z m-1 7l-1 0 0 3-3 0 0-3-2 0 0-2 2 0 0-7c0-2 1-2 3-2 0 0 1 0 1 0l0 2c0 0 0 0 0 0-1 0-1 0-1 1l0 6 1 0z m2-11l3 0 0 15-3 0 0-5c0 1-1 1-3 1-2 0-4-2-4-6 0-1 0-3 1-4 1-1 2-1 3-1 2 0 3 0 3 1z m-2 9c1 0 2-2 2-4 0-2-1-3-2-3-2 0-3 1-3 3 0 2 1 4 3 4z m-5 6l0-15 3 0 0 1c1-1 2-1 3-1 3 0 5 2 5 5 0 2-1 3-1 4-1 2-3 2-4 2-1 0-2 0-3-1l0 5z m6-6c1 0 2-2 2-4 0-2-1-3-2-3-2 0-3 1-3 3 0 2 1 4 3 4z m1 2l-2-8-3 8-3 0 4-11 0-1c0-1 0-1-1-1-1 0-1 0-1 0l0-2c0 0 0 0 1 0 1 0 1 0 2 0 1 0 1 1 1 2l5 13z m-2 0c-3 0-5-2-5-6 0-3 2-5 5-5 4 0 6 2 6 5 0 4-2 6-6 6z m0-2c2 0 3-1 3-4 0-2-1-3-3-3-1 0-2 1-2 3 0 3 1 4 2 4z m-1-3l6 0 0 3-6 0 0 3 7 0 0 3-10 0 0-15 3 0z m-1 9l-3 0 0-15 3 0z m2-4l-1 0 0 1c0 1 0 1 0 1 1 0 1 0 1 0l0 2c0 0-1 0-1 0-2 0-3-1-3-3l0-1-2 0 0-2 2 0 0-9 3 0 0 9 1 0z m-5 0l0-11 3 0 0 7c0 1 1 2 2 2 1 0 2-1 2-2l0-7 2 0 0 7c0 1 1 2 2 2 1 0 2-1 2-2l0-7 3 0 0 8c0 2-1 3-4 3-1 0-2 0-3-1 0 1-2 1-3 1-1 0-2 0-3-1l0 1z m0 4l0-15 3 0 0 7c0 1 1 2 2 2 1 0 2 0 2-1 0 0 0-1 0-1l0-7 3 0 0 7c0 2 0 3-1 3-1 1-2 1-3 1-1 0-2 0-3-2l0 6z m9-15l4 0 0 15-4 0 0-10-5 10-4 0 0-15 3 0 0 10z m1 0l0 11-3 0 0-7c0-1-1-2-2-2-1 0-2 1-2 2l0 7-3 0 0-8c0-2 2-3 4-3 1 0 2 0 3 1l0-1z m-10 11l0-11 3 0 0 7c0 1 1 2 2 2 2 0 2-1 2-2l0-7 3 0 0 7c0 3-1 4-4 4-1 0-2 0-3-2l0 2z m4-6l3 0c3 0 5 2 5 5 0 3-2 5-5 5l-6 0 0-15 3 0z m0 3l0 4 3 0c1 0 2 0 2-2 0-1-1-2-2-2z m-1 3l-3 0 0-12c0-1 0-1 0-1-1 0-1 0-1 0l0-2c1 0 1 0 2 0 2 0 2 0 2 2z m0 4l-3 0 0-3 3 0z m7-8c-1 3-2 4-5 4-3 0-5-2-5-6 0-3 2-5 5-5 3 0 4 1 5 4l-3 0c0-2-1-2-2-2-2 0-2 1-2 3 0 1 0 2 0 3 0 1 1 1 2 1 1 0 2-1 2-2z m249-221c0 0 0 0 0 0 0 1 0 1 0 1 0 4-3 8-8 9 0 0 0 0-1 0 0 0-1 0-1 0-4-1-8-5-8-9 0 0 0 0 0-1 0 0 0 0 0 0l0-27c0-1 0-1 0-1 0-1 0-1 0-1 0-5 4-8 9-8 0 0 0 0 0 0 0 0 1 0 1 0 4 0 8 3 8 8 0 0 0 1 0 1 0 0 0 0 0 0l0 28z m70-25c0 3-1 7-1 10-5 32-30 58-63 62-3 1-6 1-10 1 0 0 0 0 0 0l0-33c6-1 11-7 11-14 0 0 0-1 0-1 0 0 0-1 0-1l0-48c0 0 0 0 0-1 0 0 0 0 0-1 0-8-7-14-15-15 0 0 0 0-1 0 0 0 0 0-1 0-8 1-14 7-15 15 0 0 0 1 0 1 0 1 0 1 0 2l0 47c0 0 0 1 0 1 0 0 0 1 0 1 1 7 5 12 11 14l0 33c0 0-1 0-1 0-3 0-6 0-10-1-35-5-63-35-63-72l0-98c0-36 27-66 61-72 4 0 8-1 12-1 2 0 10 0 11 0 5 0 9 1 13 1 31 6 55 31 60 63 0 3 1 6 1 9 0 4 0 94 0 98z m-4 239c0-38-17-53-35-70-20-18-43-39-43-93l6 0c0 51 21 70 41 89 19 16 38 33 38 74z"/>
<glyph glyph-name="phone" unicode="&#121;" d="M14 522c0 1 0 2-1 3-1 1-3 2-5 2-4 0-7-3-7-8 0-4 3-7 7-7 3 0 6 2 6 5l-3 0c0-2-1-3-3-3-3 0-4 2-4 5 0 4 1 6 4 6 1 0 2-1 2-2 1 0 1 0 1-1z m-13 1l0-11 3 0 0 6c0 2 1 2 3 2 0 0 0 0 1 0l0 3c-1 0-1 0-1 0-1 0-2-1-3-2l0 2z m10-6c0 0 0 0 0 0 0 1 0 2-1 3 0 2-2 3-4 3-4 0-6-2-6-6 0-3 2-5 6-5 2 0 4 1 5 3l-3 0c-1-1-1-1-2-1-1 0-2 0-2 1-1 0-1 1-1 2z m-8 2c1 1 1 2 3 2 0 0 1 0 1-1 1 0 1-1 1-1z m8-7c-1 1-1 1-1 2l0 6c0 2-1 3-4 3-3 0-5-1-5-4l3 0c0 2 0 2 2 2 1 0 1 0 1-1 0-1 0-1 0-1-1 0-1 0-2 0l-1-1c-2 0-3-1-3-3 0-1 0-2 0-2 1-1 2-1 3-1 1 0 2 0 3 1 0 0 0-1 1-1l3 0z m-4 4c0-1-1-2-2-2-1 0-2 0-2 1 0 1 1 1 2 2l1 0c1 0 1 0 1 0z m-1 7l-1 0 0 3-3 0 0-3-2 0 0-2 2 0 0-7c0-2 1-2 3-2 0 0 1 0 1 0l0 2c0 0 0 0 0 0-1 0-1 0-1 1l0 6 1 0z m2-11l3 0 0 15-3 0 0-5c0 1-1 1-3 1-2 0-4-2-4-6 0-1 0-3 1-4 1-1 2-1 3-1 2 0 3 0 3 1z m-2 9c1 0 2-2 2-4 0-2-1-3-2-3-2 0-3 1-3 3 0 2 1 4 3 4z m-5 6l0-15 3 0 0 1c1-1 2-1 3-1 3 0 5 2 5 5 0 2-1 3-1 4-1 2-3 2-4 2-1 0-2 0-3-1l0 5z m6-6c1 0 2-2 2-4 0-2-1-3-2-3-2 0-3 1-3 3 0 2 1 4 3 4z m1 2l-2-8-3 8-3 0 4-11 0-1c0-1 0-1-1-1-1 0-1 0-1 0l0-2c0 0 0 0 1 0 1 0 1 0 2 0 1 0 1 1 1 2l5 13z m4-1c0 2 0 3-1 3-1 2-2 2-4 2-4 0-6-1-6-4 0-3 1-4 4-4l2-1c2 0 3-1 3-2 0-1-1-2-3-2-2 0-3 1-3 2l-3 0c0-3 2-4 6-4 4 0 6 1 6 4 0 3-1 4-4 4l-2 1c-3 0-3 1-3 2 0 1 1 2 2 2 2 0 3-1 4-3z m-8 1l-3 0 0-11 3 0z m0 4l-3 0 0-3 3 0z m-3-4l0-11 3 0 0 7c0 1 1 2 2 2 1 0 2-1 2-2l0-7 2 0 0 7c0 1 1 2 2 2 1 0 2-1 2-2l0-7 3 0 0 8c0 2-1 3-4 3-1 0-2 0-3-1 0 1-2 1-3 1-1 0-2 0-3-1l0 1z m5 0c-3 0-5-2-5-6 0-3 2-5 5-5 4 0 6 2 6 5 0 4-2 6-6 6z m0-2c2 0 3-1 3-4 0-2-1-3-3-3-1 0-2 1-2 3 0 3 1 4 2 4z m-5 2l0-11 3 0 0 7c0 1 1 2 2 2 2 0 2-1 2-2l0-7 3 0 0 7c0 3-1 4-4 4-1 0-2 0-3-2l0 2z m3 1l3-12 3 0 3 12 0-12 3 0 0 15-5 0-2-12-3 12-5 0 0-15 3 0z m0 3l-3 0 0-15 3 0z m2-4l-1 0 0 1c0 1 0 1 0 1 1 0 1 0 1 0l0 2c0 0-1 0-1 0-2 0-3-1-3-3l0-1-2 0 0-2 2 0 0-9 3 0 0 9 1 0z m-5 4l0-15 3 0 0 7c0 1 1 2 2 2 1 0 2 0 2-1 0 0 0-1 0-1l0-7 3 0 0 7c0 2 0 3-1 3-1 1-2 1-3 1-1 0-2 0-3-2l0 6z m9-15l4 0 0 15-4 0 0-10-5 10-4 0 0-15 3 0 0 10z m1 0l0 11-3 0 0-7c0-1-1-2-2-2-1 0-2 1-2 2l0 7-3 0 0-8c0-2 2-3 4-3 1 0 2 0 3 1l0-1z m-6 5l3 0c3 0 5 2 5 5 0 3-2 5-5 5l-6 0 0-15 3 0z m0 3l0 4 3 0c1 0 2 0 2-2 0-1-1-2-2-2z m-1 3l-3 0 0-12c0-1 0-1 0-1-1 0-1 0-1 0l0-2c1 0 1 0 2 0 2 0 2 0 2 2z m0 4l-3 0 0-3 3 0z m7-8c-1 3-2 4-5 4-3 0-5-2-5-6 0-3 2-5 5-5 3 0 4 1 5 4l-3 0c0-2-1-2-2-2-2 0-2 1-2 3 0 1 0 2 0 3 0 1 1 1 2 1 1 0 2-1 2-2z m170-258c49-59 168-115 197-102 28 12 34 40 33 52-1 13-66 52-82 59-17 8-36-16-45-26-9-10-45 20-61 35 0 0-41 46-31 56 9 9 32 29 24 45-8 16-49 80-62 81-13 1-40-7-52-36-11-29 44-140 105-186"/>
<glyph glyph-name="dial" unicode="&#122;" d="M393 256c-20 0-40 3-59 9-9 3-19 0-25-5l-37-28c-42 22-69 49-91 91l27 36c7 7 9 17 6 26-6 19-9 39-9 59 0 14-12 25-26 25l-60 0c-14 0-25-11-25-25 0-165 134-299 299-299 14 0 25 12 25 26l0 59c0 14-11 26-25 26z m-103 196c61 0 111-50 111-111 0-4 4-8 9-8 4 0 8 4 8 8 0 71-57 128-128 128-5 0-8-3-8-8 0-5 3-9 8-9z m0-68c24 0 43-19 43-43 0-4 4-8 8-8 5 0 9 4 9 8 0 33-27 60-60 60-5 0-8-4-8-8 0-5 3-9 8-9z"/>
<glyph glyph-name="print" unicode="&#65;" d="M14 522c0 1 0 2-1 3-1 1-3 2-5 2-4 0-7-3-7-8 0-4 3-7 7-7 3 0 6 2 6 5l-3 0c0-2-1-3-3-3-3 0-4 2-4 5 0 4 1 6 4 6 1 0 2-1 2-2 1 0 1 0 1-1z m-13 1l0-11 3 0 0 6c0 2 1 2 3 2 0 0 0 0 1 0l0 3c-1 0-1 0-1 0-1 0-2-1-3-2l0 2z m10-6c0 0 0 0 0 0 0 1 0 2-1 3 0 2-2 3-4 3-4 0-6-2-6-6 0-3 2-5 6-5 2 0 4 1 5 3l-3 0c-1-1-1-1-2-1-1 0-2 0-2 1-1 0-1 1-1 2z m-8 2c1 1 1 2 3 2 0 0 1 0 1-1 1 0 1-1 1-1z m8-7c-1 1-1 1-1 2l0 6c0 2-1 3-4 3-3 0-5-1-5-4l3 0c0 2 0 2 2 2 1 0 1 0 1-1 0-1 0-1 0-1-1 0-1 0-2 0l-1-1c-2 0-3-1-3-3 0-1 0-2 0-2 1-1 2-1 3-1 1 0 2 0 3 1 0 0 0-1 1-1l3 0z m-4 4c0-1-1-2-2-2-1 0-2 0-2 1 0 1 1 1 2 2l1 0c1 0 1 0 1 0z m-1 7l-1 0 0 3-3 0 0-3-2 0 0-2 2 0 0-7c0-2 1-2 3-2 0 0 1 0 1 0l0 2c0 0 0 0 0 0-1 0-1 0-1 1l0 6 1 0z m2-11l3 0 0 15-3 0 0-5c0 1-1 1-3 1-2 0-4-2-4-6 0-1 0-3 1-4 1-1 2-1 3-1 2 0 3 0 3 1z m-2 9c1 0 2-2 2-4 0-2-1-3-2-3-2 0-3 1-3 3 0 2 1 4 3 4z m-5 6l0-15 3 0 0 1c1-1 2-1 3-1 3 0 5 2 5 5 0 2-1 3-1 4-1 2-3 2-4 2-1 0-2 0-3-1l0 5z m6-6c1 0 2-2 2-4 0-2-1-3-2-3-2 0-3 1-3 3 0 2 1 4 3 4z m1 2l-2-8-3 8-3 0 4-11 0-1c0-1 0-1-1-1-1 0-1 0-1 0l0-2c0 0 0 0 1 0 1 0 1 0 2 0 1 0 1 1 1 2l5 13z m-4 0l-3 0 0-11 3 0z m0 4l-3 0 0-3 3 0z m7-8c-1 3-2 4-5 4-3 0-5-2-5-6 0-3 2-5 5-5 3 0 4 1 5 4l-3 0c0-2-1-2-2-2-2 0-2 1-2 3 0 1 0 2 0 3 0 1 1 1 2 1 1 0 2-1 2-2z m-5 4c-3 0-5-2-5-6 0-3 2-5 5-5 4 0 6 2 6 5 0 4-2 6-6 6z m0-2c2 0 3-1 3-4 0-2-1-3-3-3-1 0-2 1-2 3 0 3 1 4 2 4z m-5 2l0-11 3 0 0 7c0 1 1 2 2 2 2 0 2-1 2-2l0-7 3 0 0 7c0 3-1 4-4 4-1 0-2 0-3-2l0 2z m5 0l-1 0 0 1c0 1 0 1 0 1 1 0 1 0 1 0l0 2c0 0-1 0-1 0-2 0-3-1-3-3l0-1-2 0 0-2 2 0 0-9 3 0 0 9 1 0z m-5 0l0-11 3 0 0 7c0 1 1 2 2 2 1 0 2-1 2-2l0-7 2 0 0 7c0 1 1 2 2 2 1 0 2-1 2-2l0-7 3 0 0 8c0 2-1 3-4 3-1 0-2 0-3-1 0 1-2 1-3 1-1 0-2 0-3-1l0 1z m0 4l0-15 3 0 0 7c0 1 1 2 2 2 1 0 2 0 2-1 0 0 0-1 0-1l0-7 3 0 0 7c0 2 0 3-1 3-1 1-2 1-3 1-1 0-2 0-3-2l0 6z m9-15l4 0 0 15-4 0 0-10-5 10-4 0 0-15 3 0 0 10z m1 0l0 11-3 0 0-7c0-1-1-2-2-2-1 0-2 1-2 2l0 7-3 0 0-8c0-2 2-3 4-3 1 0 2 0 3 1l0-1z m-6 5l3 0c3 0 5 2 5 5 0 3-2 5-5 5l-6 0 0-15 3 0z m0 3l0 4 3 0c1 0 2 0 2-2 0-1-1-2-2-2z m-1 3l-3 0 0-12c0-1 0-1 0-1-1 0-1 0-1 0l0-2c1 0 1 0 2 0 2 0 2 0 2 2z m0 4l-3 0 0-3 3 0z m369-29c0 8-6 14-14 14l-207 0c-8 0-14-6-14-14l0-39 235 0z m27-58l-289 0c-22 0-39-20-39-45l0-112c0-25 17-45 39-45l13 0 0 39c0 16 12 28 28 28l207 0c15 0 28-12 28-28l0-39 13 0c21 0 39 20 39 45l0 112c0 25-18 45-39 45z m-56-56c-8 0-15 7-15 16 0 8 7 15 15 15 9 0 16-7 16-15 0-9-7-16-16-16z m54 0c-9 0-16 7-16 16 0 8 7 15 16 15 8 0 15-7 15-15 0-9-7-16-15-16z m-60-206l-50 0c0 0-1 0-1-1-1 0-1-1-1-2l0-50-113 0 0 151-23 0 0-162c0-3 1-6 4-8 2-2 5-3 8-3l129 0c3 0 6 1 8 3l58 58c2 2 4 5 4 8l0 104-23 0z"/>
<glyph glyph-name="report" unicode="&#66;" d="M22 527c0 2-1 4-2 5-2 2-4 4-8 4-6 0-11-5-11-13 0-7 4-12 11-12 6 0 10 4 10 9l-5 0c0-3-2-5-5-5-4 0-6 3-6 8 0 6 2 9 6 9 2 0 3-1 4-2 1-1 1-1 1-3z m-20 2l0-17 5 0 0 9c0 3 1 4 3 4 1 0 1 0 2 0l0 5c0 0-1 0-1 0-2 0-4-2-4-4l0 3z m15-10c0 1 0 1 0 1 0 2 0 3-1 5-1 3-4 5-7 5-5 0-8-4-8-10 0-5 3-9 8-9 3 0 7 2 8 6l-5 0c0-2-2-2-3-2-2 0-3 0-3 1-1 1-1 2-1 3z m-12 3c1 3 2 4 4 4 1 0 2 0 2-1 1-1 1-2 1-3z m12-9c-1 0-1 1-1 2l0 9c0 4-3 6-7 6-5 0-7-2-8-6l5 0c0 1 1 2 3 2 2 0 2-1 2-2 0 0 0-1 0-1-1 0-1 0-3-1l-2 0c-3-1-5-2-5-6 0-1 0-2 1-3 1-1 3-2 4-2 2 0 4 1 5 3 0-1 0-1 1-2l5 0z m-6 6c0-3-1-4-3-4-2 0-3 1-3 2 0 1 1 2 3 2l1 1c2 0 2 0 2 0z m-1 10l-3 0 0 5-4 0 0-5-3 0 0-3 3 0 0-11c0-2 1-4 4-4 1 0 2 0 3 1l0 3c-1 0-1 0-1 0-2 0-2 0-2 2l0 9 3 0z m3-17l4 0 0 23-4 0 0-8c-1 2-3 3-5 3-4 0-7-4-7-10 0-2 1-4 2-6 1-2 3-3 5-3 2 0 4 1 5 3z m-4 14c2 0 4-2 4-6 0-3-2-5-4-5-2 0-4 2-4 5 0 4 2 6 4 6z m-7 9l0-23 4 0 0 2c1-2 3-3 5-3 4 0 7 4 7 9 0 3 0 5-1 7-2 1-4 3-6 3-2 0-4-1-5-3l0 8z m8-9c2 0 4-2 4-6 0-3-2-5-4-5-2 0-4 2-4 5 0 4 2 6 4 6z m3 3l-4-12-4 12-5 0 7-18 0 0c0-1-1-3-3-3 0 0-1 0-1 0l0-3c0 0 1 0 1 0 1 0 3 0 4 1 1 0 1 1 2 3l7 20z m3-12l2-5 5 0-9 23-5 0-8-23 5 0 1 5z m-1 4l-6 0 3 9z m-8 14l-5 0 0-23 5 0z m3-6l-3 0 0 2c0 1 1 1 2 1 0 0 0 0 1 0l0 3c-1 0-2 0-3 0-3 0-4-1-4-4l0-2-3 0 0-3 3 0 0-14 4 0 0 14 3 0z m0 1c-6 0-9-4-9-10 0-5 3-9 9-9 5 0 8 4 8 9 0 6-3 10-8 10z m0-4c2 0 4-2 4-6 0-3-2-5-4-5-3 0-4 2-4 5 0 4 1 6 4 6z m6-3l0-11 5 0 0 23-5 0 0-8-9 0 0 8-5 0 0-23 5 0 0 11z m-14 6l0-17 5 0 0 10c0 2 1 4 3 4 2 0 3-1 3-3l0-11 4 0 0 12c0 3-2 6-5 6-3 0-4-1-5-3l0 2z m13 0l-14 0 0-3 8 0-8-10 0-4 14 0 0 4-9 0 9 10z m395-380l0 363-308 0 0-410 261 0z m-46-33l0 32 32 0z m-253 387l290 0 0-346-46 0 0-46-244 0z m171-148l9 0 0-21-9 0z m18 48l9 0 0-69-9 0z m18 34l9 0 0-103-9 0z m18-32l9 0 0-71-9 0z m18-33l9 0 0-38-9 0z m-124-95l133 0 0-9-133 0z m0-22l133 0 0-9-133 0z m0-47l133 0 0-9-133 0z m0-22l133 0 0-9-133 0z m-34 139c32 0 59 26 59 58 0 33-27 59-59 59-32 0-59-26-59-59 0-32 27-58 59-58z m0 108c27 0 50-22 50-50 0-27-23-49-50-49-27 0-49 22-49 49 0 28 22 50 49 50z m37-47l-34 0 0 34-6 0 0-40 40 0z m-59-116l-28 0 0-19 28 0 0-18 41 27-41 28z m0-68l-28 0 0-19 28 0 0-18 41 28-41 27z"/>
<glyph glyph-name="report-alt" unicode="&#67;" d="M14 522c0 1 0 2-1 3-1 1-3 2-5 2-4 0-7-3-7-8 0-4 3-7 7-7 3 0 6 2 6 5l-3 0c0-2-1-3-3-3-3 0-4 2-4 5 0 4 1 6 4 6 1 0 2-1 2-2 1 0 1 0 1-1z m-13 1l0-11 3 0 0 6c0 2 1 2 3 2 0 0 0 0 1 0l0 3c-1 0-1 0-1 0-1 0-2-1-3-2l0 2z m10-6c0 0 0 0 0 0 0 1 0 2-1 3 0 2-2 3-4 3-4 0-6-2-6-6 0-3 2-5 6-5 2 0 4 1 5 3l-3 0c-1-1-1-1-2-1-1 0-2 0-2 1-1 0-1 1-1 2z m-8 2c1 1 1 2 3 2 0 0 1 0 1-1 1 0 1-1 1-1z m8-7c-1 1-1 1-1 2l0 6c0 2-1 3-4 3-3 0-5-1-5-4l3 0c0 2 0 2 2 2 1 0 1 0 1-1 0-1 0-1 0-1-1 0-1 0-2 0l-1-1c-2 0-3-1-3-3 0-1 0-2 0-2 1-1 2-1 3-1 1 0 2 0 3 1 0 0 0-1 1-1l3 0z m-4 4c0-1-1-2-2-2-1 0-2 0-2 1 0 1 1 1 2 2l1 0c1 0 1 0 1 0z m-1 7l-1 0 0 3-3 0 0-3-2 0 0-2 2 0 0-7c0-2 1-2 3-2 0 0 1 0 1 0l0 2c0 0 0 0 0 0-1 0-1 0-1 1l0 6 1 0z m2-11l3 0 0 15-3 0 0-5c0 1-1 1-3 1-2 0-4-2-4-6 0-1 0-3 1-4 1-1 2-1 3-1 2 0 3 0 3 1z m-2 9c1 0 2-2 2-4 0-2-1-3-2-3-2 0-3 1-3 3 0 2 1 4 3 4z m-5 6l0-15 3 0 0 1c1-1 2-1 3-1 3 0 5 2 5 5 0 2-1 3-1 4-1 2-3 2-4 2-1 0-2 0-3-1l0 5z m6-6c1 0 2-2 2-4 0-2-1-3-2-3-2 0-3 1-3 3 0 2 1 4 3 4z m1 2l-2-8-3 8-3 0 4-11 0-1c0-1 0-1-1-1-1 0-1 0-1 0l0-2c0 0 0 0 1 0 1 0 1 0 2 0 1 0 1 1 1 2l5 13z m2-8l1-3 3 0-5 15-3 0-5-15 3 0 1 3z m-1 3l-3 0 1 5z m-8 9l0-15 3 0 0 7c0 1 1 2 2 2 1 0 2 0 2-1 0 0 0-1 0-1l0-7 3 0 0 7c0 2 0 3-1 3-1 1-2 1-3 1-1 0-2 0-3-2l0 6z m10-15l0 11-3 0 0-7c0-1-1-2-2-2-1 0-2 1-2 2l0 7-3 0 0-8c0-2 2-3 4-3 1 0 2 0 3 1l0-1z m1 10c0 2 0 3-1 3-1 2-2 2-4 2-4 0-6-1-6-4 0-3 1-4 4-4l2-1c2 0 3-1 3-2 0-1-1-2-3-2-2 0-3 1-3 2l-3 0c0-3 2-4 6-4 4 0 6 1 6 4 0 3-1 4-4 4l-2 1c-3 0-3 1-3 2 0 1 1 2 2 2 2 0 3-1 4-3z m-8 5l-3 0 0-15 3 0z m0-4l-3 0 0-11 3 0z m0 4l-3 0 0-3 3 0z m-3-4l0-11 3 0 0 7c0 1 1 2 2 2 2 0 2-1 2-2l0-7 3 0 0 7c0 3-1 4-4 4-1 0-2 0-3-2l0 2z m5 0l-1 0 0 1c0 1 0 1 0 1 1 0 1 0 1 0l0 2c0 0-1 0-1 0-2 0-3-1-3-3l0-1-2 0 0-2 2 0 0-9 3 0 0 9 1 0z m0 0c-3 0-5-2-5-6 0-3 2-5 5-5 4 0 6 2 6 5 0 4-2 6-6 6z m0-2c2 0 3-1 3-4 0-2-1-3-3-3-1 0-2 1-2 3 0 3 1 4 2 4z m-5 2l0-11 3 0 0 7c0 1 1 2 2 2 1 0 2-1 2-2l0-7 2 0 0 7c0 1 1 2 2 2 1 0 2-1 2-2l0-7 3 0 0 8c0 2-1 3-4 3-1 0-2 0-3-1 0 1-2 1-3 1-1 0-2 0-3-1l0 1z m9-11l4 0 0 15-4 0 0-10-5 10-4 0 0-15 3 0 0 10z m-5 5l3 0c3 0 5 2 5 5 0 3-2 5-5 5l-6 0 0-15 3 0z m0 3l0 4 3 0c1 0 2 0 2-2 0-1-1-2-2-2z m-1 3l-3 0 0-12c0-1 0-1 0-1-1 0-1 0-1 0l0-2c1 0 1 0 2 0 2 0 2 0 2 2z m0 4l-3 0 0-3 3 0z m7-8c-1 3-2 4-5 4-3 0-5-2-5-6 0-3 2-5 5-5 3 0 4 1 5 4l-3 0c0-2-1-2-2-2-2 0-2 1-2 3 0 1 0 2 0 3 0 1 1 1 2 1 1 0 2-1 2-2z m112-396l266 0c6 0 10 4 10 10l0 328c0 5-4 10-10 10l-53 0c-4 12-16 21-30 21l-100 0c-14 0-26-9-30-21l-53 0c-6 0-10-5-10-10l0-328c0-6 4-10 10-10z m74 331c-2 2-3 5-2 8 0 5 5 9 11 9l100 0c6 0 10-3 11-8 1-4-1-7-2-9-2-2-5-3-8-3l-102 0c-3 0-6 1-8 3z m-64-3l43 0c1-4 3-8 6-11 6-6 14-10 23-10l102 0c9 0 18 4 24 11 2 3 4 6 5 10l43 0 0-308-246 0z m85-55l-34-33-13 13c-4 4-10 4-14 0-4-4-4-11 0-15l20-20c2-2 5-3 7-3 3 0 6 1 8 3l41 41c4 4 4 10 0 14-4 4-11 4-15 0z m0-82l-34-33-13 13c-4 4-10 4-14 0-4-4-4-11 0-15l20-20c2-2 5-3 7-3 3 0 6 1 8 3l41 41c4 4 4 10 0 14-4 4-11 4-15 0z m0-81l-34-34-13 13c-4 4-10 4-14 0-4-4-4-10 0-14l20-21c2-2 5-3 7-3 3 0 6 1 8 3l41 41c4 4 4 11 0 15-4 4-11 4-15 0z m130 166l-82 0c-5 0-10-4-10-10 0-6 5-10 10-10l82 0c6 0 10 4 10 10 0 6-4 10-10 10z m-82-61l41 0c6 0 10 5 10 10 0 6-4 10-10 10l-41 0c-5 0-10-4-10-10 0-5 5-10 10-10z m82-21l-82 0c-5 0-10-4-10-10 0-5 5-10 10-10l82 0c6 0 10 5 10 10 0 6-4 10-10 10z m-82-61l41 0c6 0 10 5 10 10 0 6-4 10-10 10l-41 0c-5 0-10-4-10-10 0-5 5-10 10-10z m82-20l-82 0c-5 0-10-5-10-11 0-5 5-10 10-10l82 0c6 0 10 5 10 10 0 6-4 11-10 11z m-41-41l-41 0c-5 0-10-5-10-11 0-5 5-10 10-10l41 0c6 0 10 5 10 10 0 6-4 11-10 11z"/>
<glyph glyph-name="responsive-design" unicode="&#68;" d="M14 522c0 1 0 2-1 3-1 1-3 2-5 2-4 0-7-3-7-8 0-4 3-7 7-7 3 0 6 2 6 5l-3 0c0-2-1-3-3-3-3 0-4 2-4 5 0 4 1 6 4 6 1 0 2-1 2-2 1 0 1 0 1-1z m-13 1l0-11 3 0 0 6c0 2 1 2 3 2 0 0 0 0 1 0l0 3c-1 0-1 0-1 0-1 0-2-1-3-2l0 2z m10-6c0 0 0 0 0 0 0 1 0 2-1 3 0 2-2 3-4 3-4 0-6-2-6-6 0-3 2-5 6-5 2 0 4 1 5 3l-3 0c-1-1-1-1-2-1-1 0-2 0-2 1-1 0-1 1-1 2z m-8 2c1 1 1 2 3 2 0 0 1 0 1-1 1 0 1-1 1-1z m8-7c-1 1-1 1-1 2l0 6c0 2-1 3-4 3-3 0-5-1-5-4l3 0c0 2 0 2 2 2 1 0 1 0 1-1 0-1 0-1 0-1-1 0-1 0-2 0l-1-1c-2 0-3-1-3-3 0-1 0-2 0-2 1-1 2-1 3-1 1 0 2 0 3 1 0 0 0-1 1-1l3 0z m-4 4c0-1-1-2-2-2-1 0-2 0-2 1 0 1 1 1 2 2l1 0c1 0 1 0 1 0z m-1 7l-1 0 0 3-3 0 0-3-2 0 0-2 2 0 0-7c0-2 1-2 3-2 0 0 1 0 1 0l0 2c0 0 0 0 0 0-1 0-1 0-1 1l0 6 1 0z m2-11l3 0 0 15-3 0 0-5c0 1-1 1-3 1-2 0-4-2-4-6 0-1 0-3 1-4 1-1 2-1 3-1 2 0 3 0 3 1z m-2 9c1 0 2-2 2-4 0-2-1-3-2-3-2 0-3 1-3 3 0 2 1 4 3 4z m-5 6l0-15 3 0 0 1c1-1 2-1 3-1 3 0 5 2 5 5 0 2-1 3-1 4-1 2-3 2-4 2-1 0-2 0-3-1l0 5z m6-6c1 0 2-2 2-4 0-2-1-3-2-3-2 0-3 1-3 3 0 2 1 4 3 4z m1 2l-2-8-3 8-3 0 4-11 0-1c0-1 0-1-1-1-1 0-1 0-1 0l0-2c0 0 0 0 1 0 1 0 1 0 2 0 1 0 1 1 1 2l5 13z m-4 1l3-12 3 0 3 12 0-12 3 0 0 15-5 0-2-12-3 12-5 0 0-15 3 0z m0-1l-3 0 0-11 3 0z m0 4l-3 0 0-3 3 0z m0 0l-3 0 0-15 3 0z m0-8l0 8-3 0 0-15 3 0 0 4 1 1 3-5 3 0-4 7 4 4-3 0z m2 0l-5 0 0-3 5 0z m-4-7l5 0c3 0 4 1 5 2 1 1 2 3 2 5 0 3-1 5-2 6-1 1-2 2-5 2l-5 0z m3 3l0 9 2 0c3 0 4-1 4-5 0-3-1-4-4-4z m3 8l0-2c0 2-1 2-3 2-2 0-4-2-4-6 0-3 2-5 4-5 2 0 2 0 3 1l0-1c0-2-1-3-2-3-1 0-2 1-2 2l-3 0c0-1 0-2 1-2 1-1 2-1 4-1 3 0 5 1 5 4l0 11z m-2-2c1 0 2-2 2-4 0-2-1-3-2-3-1 0-2 1-2 3 0 2 1 4 2 4z m-5 2l0-11 3 0 0 7c0 1 1 2 2 2 2 0 2-1 2-2l0-7 3 0 0 7c0 3-1 4-4 4-1 0-2 0-3-2l0 2z m5 0c-3 0-5-2-5-6 0-3 2-5 5-5 4 0 6 2 6 5 0 4-2 6-6 6z m0-2c2 0 3-1 3-4 0-2-1-3-3-3-1 0-2 1-2 3 0 3 1 4 2 4z m1-9l4 11-3 0-2-8-3 8-3 0 4-11z m-1 11l-1 0 0 1c0 1 0 1 0 1 1 0 1 0 1 0l0 2c0 0-1 0-1 0-2 0-3-1-3-3l0-1-2 0 0-2 2 0 0-9 3 0 0 9 1 0z m-5 0l0-11 3 0 0 7c0 1 1 2 2 2 1 0 2-1 2-2l0-7 2 0 0 7c0 1 1 2 2 2 1 0 2-1 2-2l0-7 3 0 0 8c0 2-1 3-4 3-1 0-2 0-3-1 0 1-2 1-3 1-1 0-2 0-3-1l0 1z m0 4l0-15 3 0 0 7c0 1 1 2 2 2 1 0 2 0 2-1 0 0 0-1 0-1l0-7 3 0 0 7c0 2 0 3-1 3-1 1-2 1-3 1-1 0-2 0-3-2l0 6z m9-15l4 0 0 15-4 0 0-10-5 10-4 0 0-15 3 0 0 10z m1 0l0 11-3 0 0-7c0-1-1-2-2-2-1 0-2 1-2 2l0 7-3 0 0-8c0-2 2-3 4-3 1 0 2 0 3 1l0-1z m-6 5l3 0c3 0 5 2 5 5 0 3-2 5-5 5l-6 0 0-15 3 0z m0 3l0 4 3 0c1 0 2 0 2-2 0-1-1-2-2-2z m-1 3l-3 0 0-12c0-1 0-1 0-1-1 0-1 0-1 0l0-2c1 0 1 0 2 0 2 0 2 0 2 2z m0 4l-3 0 0-3 3 0z m7-8c-1 3-2 4-5 4-3 0-5-2-5-6 0-3 2-5 5-5 3 0 4 1 5 4l-3 0c0-2-1-2-2-2-2 0-2 1-2 3 0 1 0 2 0 3 0 1 1 1 2 1 1 0 2-1 2-2z m418-210l-76 0 0 97c0 8-6 14-14 14l-228 0c-8 0-14-6-14-14l0-86-15 0c-5 0-10-4-10-10l0-107c0-6 5-11 10-11l53 0c6 0 11 5 11 11l0 40 49 0 0-5c-1-13-8-16-23-20l-5-2c-3-1-9-3-10-8 0-1-1-4 1-6 1-2 4-2 6-2l103 0c0-5 5-10 10-10l152 0c6 0 10 5 10 11l0 98c0 6-4 10-10 10z m-325 97c0 4 3 7 7 7l228 0c4 0 7-3 7-7l0-97-11 0 0 84c0 5-4 9-9 9l-201 0c-6 0-10-4-10-9l0-73-11 0 0 86z m35-203c0-2-2-4-4-4l-53 0c-2 0-3 2-3 4l0 107c0 2 1 3 3 3l53 0c2 0 4-1 4-3l0-107z m128 4l-103 0c0 0 0 0 0 0 0 1 2 2 6 3l4 1c14 4 27 8 28 26l0 6 40 0 0-7c2-17 14-21 25-24l0-5z m0 12c-11 3-17 7-18 17l0 7 18 0z m0 31l-121 0 0 27 121 0z m0 49l0-15-121 0 0 26c0 6-5 10-11 10l-13 0 0 73c0 1 1 2 3 2l201 0c1 0 2-1 2-2l0-84-51 0c-6 0-10-4-10-10z m165-98c0-2-1-4-3-4l-152 0c-2 0-3 2-3 4l0 98c0 2 1 3 3 3l152 0c2 0 3-1 3-3z m-133 3l117 0 0 92-117 0z m7 85l103 0 0-78-103 0z m-20-33c-4 0-7-2-7-6 0-4 3-7 7-7 4 0 6 3 6 7 0 4-2 6-6 6z m138 9c-1 0-3-2-3-4l0-29c0-2 2-3 3-3 2 0 4 1 4 3l0 29c0 2-2 4-4 4z m-315-47c-3 0-6-3-6-7 0-4 3-7 6-7 4 0 7 3 7 7 0 4-3 7-7 7z m-26 7l52 0 0 74-52 0z m7 67l38 0 0-60-38 0z m7 13l24 0c2 0 3 1 3 2 0 2-1 3-3 3l-24 0c-2 0-3-1-3-3 0-1 1-2 3-2z"/>
<glyph glyph-name="settings" unicode="&#69;" d="M14 522c0 1 0 2-1 3-1 1-3 2-5 2-4 0-7-3-7-8 0-4 3-7 7-7 3 0 6 2 6 5l-3 0c0-2-1-3-3-3-3 0-4 2-4 5 0 4 1 6 4 6 1 0 2-1 2-2 1 0 1 0 1-1z m-13 1l0-11 3 0 0 6c0 2 1 2 3 2 0 0 0 0 1 0l0 3c-1 0-1 0-1 0-1 0-2-1-3-2l0 2z m10-6c0 0 0 0 0 0 0 1 0 2-1 3 0 2-2 3-4 3-4 0-6-2-6-6 0-3 2-5 6-5 2 0 4 1 5 3l-3 0c-1-1-1-1-2-1-1 0-2 0-2 1-1 0-1 1-1 2z m-8 2c1 1 1 2 3 2 0 0 1 0 1-1 1 0 1-1 1-1z m8-7c-1 1-1 1-1 2l0 6c0 2-1 3-4 3-3 0-5-1-5-4l3 0c0 2 0 2 2 2 1 0 1 0 1-1 0-1 0-1 0-1-1 0-1 0-2 0l-1-1c-2 0-3-1-3-3 0-1 0-2 0-2 1-1 2-1 3-1 1 0 2 0 3 1 0 0 0-1 1-1l3 0z m-4 4c0-1-1-2-2-2-1 0-2 0-2 1 0 1 1 1 2 2l1 0c1 0 1 0 1 0z m-1 7l-1 0 0 3-3 0 0-3-2 0 0-2 2 0 0-7c0-2 1-2 3-2 0 0 1 0 1 0l0 2c0 0 0 0 0 0-1 0-1 0-1 1l0 6 1 0z m2-11l3 0 0 15-3 0 0-5c0 1-1 1-3 1-2 0-4-2-4-6 0-1 0-3 1-4 1-1 2-1 3-1 2 0 3 0 3 1z m-2 9c1 0 2-2 2-4 0-2-1-3-2-3-2 0-3 1-3 3 0 2 1 4 3 4z m-5 6l0-15 3 0 0 1c1-1 2-1 3-1 3 0 5 2 5 5 0 2-1 3-1 4-1 2-3 2-4 2-1 0-2 0-3-1l0 5z m6-6c1 0 2-2 2-4 0-2-1-3-2-3-2 0-3 1-3 3 0 2 1 4 3 4z m1 2l-2-8-3 8-3 0 4-11 0-1c0-1 0-1-1-1-1 0-1 0-1 0l0-2c0 0 0 0 1 0 1 0 1 0 2 0 1 0 1 1 1 2l5 13z m-4 0l-3 0 0-11 3 0z m0 4l-3 0 0-3 3 0z m0 0l-3 0 0-15 3 0z m0-4l-3 0 0-15 3 0 0 5c1-1 2-1 3-1 3 0 5 2 5 5 0 2-1 3-1 5-1 1-3 1-4 1-1 0-2 0-3-2z m2-2c2 0 3-2 3-4 0-2-1-3-3-3-1 0-2 1-2 3 0 2 1 4 2 4z m-5 2l0-11 3 0 0 7c0 1 1 2 2 2 2 0 2-1 2-2l0-7 3 0 0 7c0 3-1 4-4 4-1 0-2 0-3-2l0 2z m5 0c-3 0-5-2-5-6 0-3 2-5 5-5 4 0 6 2 6 5 0 4-2 6-6 6z m0-2c2 0 3-1 3-4 0-2-1-3-3-3-1 0-2 1-2 3 0 3 1 4 2 4z m0 2l-1 0 0 1c0 1 0 1 0 1 1 0 1 0 1 0l0 2c0 0-1 0-1 0-2 0-3-1-3-3l0-1-2 0 0-2 2 0 0-9 3 0 0 9 1 0z m-5 0l0-11 3 0 0 7c0 1 1 2 2 2 1 0 2-1 2-2l0-7 2 0 0 7c0 1 1 2 2 2 1 0 2-1 2-2l0-7 3 0 0 8c0 2-1 3-4 3-1 0-2 0-3-1 0 1-2 1-3 1-1 0-2 0-3-1l0 1z m0 4l0-15 3 0 0 7c0 1 1 2 2 2 1 0 2 0 2-1 0 0 0-1 0-1l0-7 3 0 0 7c0 2 0 3-1 3-1 1-2 1-3 1-1 0-2 0-3-2l0 6z m9-15l4 0 0 15-4 0 0-10-5 10-4 0 0-15 3 0 0 10z m1 0l0 11-3 0 0-7c0-1-1-2-2-2-1 0-2 1-2 2l0 7-3 0 0-8c0-2 2-3 4-3 1 0 2 0 3 1l0-1z m-6 5l3 0c3 0 5 2 5 5 0 3-2 5-5 5l-6 0 0-15 3 0z m0 3l0 4 3 0c1 0 2 0 2-2 0-1-1-2-2-2z m-1 3l-3 0 0-12c0-1 0-1 0-1-1 0-1 0-1 0l0-2c1 0 1 0 2 0 2 0 2 0 2 2z m0 4l-3 0 0-3 3 0z m7-8c-1 3-2 4-5 4-3 0-5-2-5-6 0-3 2-5 5-5 3 0 4 1 5 4l-3 0c0-2-1-2-2-2-2 0-2 1-2 3 0 1 0 2 0 3 0 1 1 1 2 1 1 0 2-1 2-2z m232-122l-6-22c-6-1-11-3-16-6l-20 11-18-18 11-20c-2-5-5-10-6-16l-22-6 0-25 22-7c1-5 4-11 6-16l-11-20 18-17 20 11c5-3 10-5 16-7l6-22 26 0 6 22c6 2 11 4 16 7l20-11 18 17-11 20c2 5 5 11 6 16l22 7 0 25-22 6c-1 6-4 11-6 16l11 20-18 18-20-11c-5 3-10 5-16 6l-6 22z m13-53c20 0 37-16 37-37 0-20-17-37-37-37-20 0-37 17-37 37 0 21 17 37 37 37z m0-8c-16 0-29-13-29-29 0-16 13-28 29-28 16 0 29 12 29 28 0 16-13 29-29 29z"/>
<glyph glyph-name="config" unicode="&#70;" d="M14 522c0 1 0 2-1 3-1 1-3 2-5 2-4 0-7-3-7-8 0-4 3-7 7-7 3 0 6 2 6 5l-3 0c0-2-1-3-3-3-3 0-4 2-4 5 0 4 1 6 4 6 1 0 2-1 2-2 1 0 1 0 1-1z m-13 1l0-11 3 0 0 6c0 2 1 2 3 2 0 0 0 0 1 0l0 3c-1 0-1 0-1 0-1 0-2-1-3-2l0 2z m10-6c0 0 0 0 0 0 0 1 0 2-1 3 0 2-2 3-4 3-4 0-6-2-6-6 0-3 2-5 6-5 2 0 4 1 5 3l-3 0c-1-1-1-1-2-1-1 0-2 0-2 1-1 0-1 1-1 2z m-8 2c1 1 1 2 3 2 0 0 1 0 1-1 1 0 1-1 1-1z m8-7c-1 1-1 1-1 2l0 6c0 2-1 3-4 3-3 0-5-1-5-4l3 0c0 2 0 2 2 2 1 0 1 0 1-1 0-1 0-1 0-1-1 0-1 0-2 0l-1-1c-2 0-3-1-3-3 0-1 0-2 0-2 1-1 2-1 3-1 1 0 2 0 3 1 0 0 0-1 1-1l3 0z m-4 4c0-1-1-2-2-2-1 0-2 0-2 1 0 1 1 1 2 2l1 0c1 0 1 0 1 0z m-1 7l-1 0 0 3-3 0 0-3-2 0 0-2 2 0 0-7c0-2 1-2 3-2 0 0 1 0 1 0l0 2c0 0 0 0 0 0-1 0-1 0-1 1l0 6 1 0z m2-11l3 0 0 15-3 0 0-5c0 1-1 1-3 1-2 0-4-2-4-6 0-1 0-3 1-4 1-1 2-1 3-1 2 0 3 0 3 1z m-2 9c1 0 2-2 2-4 0-2-1-3-2-3-2 0-3 1-3 3 0 2 1 4 3 4z m-5 6l0-15 3 0 0 1c1-1 2-1 3-1 3 0 5 2 5 5 0 2-1 3-1 4-1 2-3 2-4 2-1 0-2 0-3-1l0 5z m6-6c1 0 2-2 2-4 0-2-1-3-2-3-2 0-3 1-3 3 0 2 1 4 3 4z m1 2l-2-8-3 8-3 0 4-11 0-1c0-1 0-1-1-1-1 0-1 0-1 0l0-2c0 0 0 0 1 0 1 0 1 0 2 0 1 0 1 1 1 2l5 13z m-3-5l3 0c2 0 2-1 2-2 0 0 0 0 0 0 0-1 0-1 0-1 0-2 0-2 1-3l3 0 0 1c-1 0-1 0-1 1 0 4 0 4-2 5 2 1 3 2 3 4 0 1-1 2-1 3-1 1-2 1-3 1l-8 0 0-15 3 0z m0 2l0 4 3 0c1 0 2 0 2 0 0 0 1-1 1-2 0 0-1-1-1-1 0 0-1-1-2-1z m-1 7l-3 0 0-15 3 0z m2-4l-1 0 0 1c0 1 0 1 0 1 1 0 1 0 1 0l0 2c0 0-1 0-1 0-2 0-3-1-3-3l0-1-2 0 0-2 2 0 0-9 3 0 0 9 1 0z m6-1c0 2 0 3-1 3-1 2-2 2-4 2-4 0-6-1-6-4 0-3 1-4 4-4l2-1c2 0 3-1 3-2 0-1-1-2-3-2-2 0-3 1-3 2l-3 0c0-3 2-4 6-4 4 0 6 1 6 4 0 3-1 4-4 4l-2 1c-3 0-3 1-3 2 0 1 1 2 2 2 2 0 3-1 4-3z m-1-3c-1 3-2 4-5 4-3 0-5-2-5-6 0-3 2-5 5-5 3 0 4 1 5 4l-3 0c0-2-1-2-2-2-2 0-2 1-2 3 0 1 0 2 0 3 0 1 1 1 2 1 1 0 2-1 2-2z m-10 8l0-15 3 0 0 7c0 1 1 2 2 2 1 0 2 0 2-1 0 0 0-1 0-1l0-7 3 0 0 7c0 2 0 3-1 3-1 1-2 1-3 1-1 0-2 0-3-2l0 6z m0-4l0-11 3 0 0 7c0 1 1 2 2 2 1 0 2-1 2-2l0-7 2 0 0 7c0 1 1 2 2 2 1 0 2-1 2-2l0-7 3 0 0 8c0 2-1 3-4 3-1 0-2 0-3-1 0 1-2 1-3 1-1 0-2 0-3-1l0 1z m3 0l-3 0 0-11 3 0z m0 4l-3 0 0-3 3 0z m5-4l-8 0 0-2 5 0-6-7 0-2 10 0 0 2-6 0 5 7z m-3 0c-3 0-5-2-5-6 0-3 2-5 5-5 4 0 6 2 6 5 0 4-2 6-6 6z m0-2c2 0 3-1 3-4 0-2-1-3-3-3-1 0-2 1-2 3 0 3 1 4 2 4z m4-9l4 0 0 15-4 0 0-10-5 10-4 0 0-15 3 0 0 10z m1 0l0 11-3 0 0-7c0-1-1-2-2-2-1 0-2 1-2 2l0 7-3 0 0-8c0-2 2-3 4-3 1 0 2 0 3 1l0-1z m-10 11l0-11 3 0 0 7c0 1 1 2 2 2 2 0 2-1 2-2l0-7 3 0 0 7c0 3-1 4-4 4-1 0-2 0-3-2l0 2z m4-6l3 0c3 0 5 2 5 5 0 3-2 5-5 5l-6 0 0-15 3 0z m0 3l0 4 3 0c1 0 2 0 2-2 0-1-1-2-2-2z m-1 3l-3 0 0-12c0-1 0-1 0-1-1 0-1 0-1 0l0-2c1 0 1 0 2 0 2 0 2 0 2 2z m0 4l-3 0 0-3 3 0z m420-299c-18 19-53 19-57 19-4 0-11 3-14 6l-73 73 86 86c3-1 5-1 7-1 5 0 9 1 13 5l35 35-24 24-36-35c-3-3-5-8-5-12 0-3 1-5 2-7l-86-86-69 68c-3 3-5 10-5 14 0 2 0 38-19 57-19 18-53 19-57 19-8 0-11-4-12-6 0-2-1-7 4-12l25-25c2-2 2-5 0-7l-16-16c-1-1-5-1-7 0l-24 25c-3 3-6 4-9 4-5 0-10-3-10-11 0-2 0-39 19-57 19-19 53-19 57-19 5 0 12-3 15-6l68-68-22-22-11 11c-3 4-8 5-12 5-5 0-9-1-12-5l-101-101c-4-3-5-7-5-12 0-4 1-9 5-12l31-31c3-3 7-5 12-5 4 0 9 2 12 5l101 101c7 7 7 18 0 24l-11 11 21 22 73-73c3-3 6-10 6-14 0-2 0-38 19-57 18-19 53-19 57-19l0 0c8 0 11 4 11 6 1 2 2 7-3 12l-25 25c-2 2-2 5 0 7l15 15c2 2 5 2 7 0l25-24c3-3 6-5 9-5 5 0 9 4 9 12 0 2 0 38-19 57z m-29-99z"/>
<glyph glyph-name="text" unicode="&#71;" d="M14 522c0 1 0 2-1 3-1 1-3 2-5 2-4 0-7-3-7-8 0-4 3-7 7-7 3 0 6 2 6 5l-3 0c0-2-1-3-3-3-3 0-4 2-4 5 0 4 1 6 4 6 1 0 2-1 2-2 1 0 1 0 1-1z m-13 1l0-11 3 0 0 6c0 2 1 2 3 2 0 0 0 0 1 0l0 3c-1 0-1 0-1 0-1 0-2-1-3-2l0 2z m10-6c0 0 0 0 0 0 0 1 0 2-1 3 0 2-2 3-4 3-4 0-6-2-6-6 0-3 2-5 6-5 2 0 4 1 5 3l-3 0c-1-1-1-1-2-1-1 0-2 0-2 1-1 0-1 1-1 2z m-8 2c1 1 1 2 3 2 0 0 1 0 1-1 1 0 1-1 1-1z m8-7c-1 1-1 1-1 2l0 6c0 2-1 3-4 3-3 0-5-1-5-4l3 0c0 2 0 2 2 2 1 0 1 0 1-1 0-1 0-1 0-1-1 0-1 0-2 0l-1-1c-2 0-3-1-3-3 0-1 0-2 0-2 1-1 2-1 3-1 1 0 2 0 3 1 0 0 0-1 1-1l3 0z m-4 4c0-1-1-2-2-2-1 0-2 0-2 1 0 1 1 1 2 2l1 0c1 0 1 0 1 0z m-1 7l-1 0 0 3-3 0 0-3-2 0 0-2 2 0 0-7c0-2 1-2 3-2 0 0 1 0 1 0l0 2c0 0 0 0 0 0-1 0-1 0-1 1l0 6 1 0z m2-11l3 0 0 15-3 0 0-5c0 1-1 1-3 1-2 0-4-2-4-6 0-1 0-3 1-4 1-1 2-1 3-1 2 0 3 0 3 1z m-2 9c1 0 2-2 2-4 0-2-1-3-2-3-2 0-3 1-3 3 0 2 1 4 3 4z m-5 6l0-15 3 0 0 1c1-1 2-1 3-1 3 0 5 2 5 5 0 2-1 3-1 4-1 2-3 2-4 2-1 0-2 0-3-1l0 5z m6-6c1 0 2-2 2-4 0-2-1-3-2-3-2 0-3 1-3 3 0 2 1 4 3 4z m1 2l-2-8-3 8-3 0 4-11 0-1c0-1 0-1-1-1-1 0-1 0-1 0l0-2c0 0 0 0 1 0 1 0 1 0 2 0 1 0 1 1 1 2l5 13z m-3-6l3 0c3 0 5 2 5 5 0 3-2 5-5 5l-6 0 0-15 3 0z m0 3l0 4 3 0c1 0 2 0 2-2 0-1-1-2-2-2z m5 0c0 2-1 3-4 3-3 0-5-1-5-3 0-1 0-2 1-2 0-1 0-1 1-1l4-1c1 0 1-1 1-1 0-1-1-1-2-1-1 0-2 0-2 0 0 0 0 1-1 1l-2 0c0-2 1-3 5-3 1 0 3 0 3 1 1 0 2 1 2 2 0 2-1 3-3 3l-3 1c-1 0-1 1-1 1 0 1 1 1 2 1 1 0 2 0 2-1z m1-1c-1 3-2 4-5 4-3 0-5-2-5-6 0-3 2-5 5-5 3 0 4 1 5 4l-3 0c0-2-1-2-2-2-2 0-2 1-2 3 0 1 0 2 0 3 0 1 1 1 2 1 1 0 2-1 2-2z m-7 8l-3 0 0-15 3 0z m2-4c-3 0-5-2-5-6 0-3 2-5 5-5 4 0 6 2 6 5 0 4-2 6-6 6z m0-2c2 0 3-1 3-4 0-2-1-3-3-3-1 0-2 1-2 3 0 3 1 4 2 4z m-5 2l0-11 3 0 0 7c0 1 1 2 2 2 2 0 2-1 2-2l0-7 3 0 0 7c0 3-1 4-4 4-1 0-2 0-3-2l0 2z m3 0l-3 0 0-11 3 0z m0 4l-3 0 0-3 3 0z m2-8l-5 0 0-3 5 0z m0 4l-1 0 0 1c0 1 0 1 0 1 1 0 1 0 1 0l0 2c0 0-1 0-1 0-2 0-3-1-3-3l0-1-2 0 0-2 2 0 0-9 3 0 0 9 1 0z m-5 0l0-11 3 0 0 7c0 1 1 2 2 2 1 0 2-1 2-2l0-7 2 0 0 7c0 1 1 2 2 2 1 0 2-1 2-2l0-7 3 0 0 8c0 2-1 3-4 3-1 0-2 0-3-1 0 1-2 1-3 1-1 0-2 0-3-1l0 1z m0 4l0-15 3 0 0 7c0 1 1 2 2 2 1 0 2 0 2-1 0 0 0-1 0-1l0-7 3 0 0 7c0 2 0 3-1 3-1 1-2 1-3 1-1 0-2 0-3-2l0 6z m9-15l4 0 0 15-4 0 0-10-5 10-4 0 0-15 3 0 0 10z m1 0l0 11-3 0 0-7c0-1-1-2-2-2-1 0-2 1-2 2l0 7-3 0 0-8c0-2 2-3 4-3 1 0 2 0 3 1l0-1z m-7 11l-3 0 0-12c0-1 0-1 0-1-1 0-1 0-1 0l0-2c1 0 1 0 2 0 2 0 2 0 2 2z m0 4l-3 0 0-3 3 0z m150-199c0 43 27 81 68 103-12 4-26 7-41 7-62 0-109-39-109-89 0-14 5-26 10-37l45-96c3-7 9-11 17-11 10 0 18 8 18 19l0 37c6-1 12-2 19-2-17 20-27 43-27 69z m150 94c66 0 120-39 120-94 0-14-5-26-11-39l-58-124c0-1-2-2-2-2-2 0-3 1-3 3l0 74c-15-4-30-7-47-7-66 0-120 42-120 95 0 52 54 94 121 94m0 17c-76 0-137-50-137-111 0-62 61-111 137-111 10 0 20 0 30 3l0-54c0-10 8-19 19-19 7 0 14 4 17 11l58 124c7 14 12 28 12 46 0 31-14 60-41 80-25 20-59 31-95 31z"/>
<glyph glyph-name="check" unicode="&#72;" d="M477 350c0-7-2-14-8-19l-206-207-39-39c-6-5-12-8-20-8-7 0-14 3-19 8l-142 142c-6 6-8 12-8 20 0 7 2 14 8 19l38 39c6 5 12 8 20 8 7 0 14-3 19-8l84-84 188 188c5 5 12 8 19 8 8 0 14-3 20-8l38-39c6-6 8-12 8-20z"/>
<glyph glyph-name="arrow-circle-up" unicode="&#73;" d="M356 262c-2-4-4-6-9-6l-54 0 0-101c0-2-1-4-3-6-2-2-4-3-7-3l-54 0c-3 0-5 1-7 3-2 2-3 4-3 6l0 101-54 0c-3 0-5 1-7 3-2 1-3 3-3 6 0 2 1 5 3 7l91 91c3 2 5 3 7 3 2 0 4-1 7-3l91-91c3-3 4-7 2-10z m-100 149c-28 0-54-7-78-20-24-14-43-33-57-57-13-24-20-50-20-78 0-28 7-54 20-78 14-24 33-43 57-57 24-13 50-20 78-20 28 0 54 7 78 20 24 14 43 33 57 57 13 24 20 50 20 78 0 28-7 54-20 78-14 24-33 43-57 57-24 13-50 20-78 20z m219-155c0-40-9-77-29-110-20-34-46-60-80-80-33-20-70-29-110-29-40 0-77 9-110 29-34 20-60 46-80 80-20 33-29 70-29 110 0 40 9 77 29 110 20 34 46 60 80 80 33 20 70 29 110 29 40 0 77-9 110-29 34-20 60-46 80-80 20-33 29-70 29-110z"/>
<glyph glyph-name="angle-up" unicode="&#74;" d="M399 174c0-3-1-5-3-7l-15-14c-1-2-4-3-6-3-3 0-5 1-7 3l-112 112-112-112c-2-2-4-3-7-3-2 0-5 1-6 3l-15 14c-2 2-3 4-3 7 0 2 1 4 3 6l133 133c2 2 5 3 7 3 2 0 5-1 7-3l133-133c2-2 3-4 3-6z"/>
<glyph glyph-name="angle-right" unicode="&#75;" d="M335 238c0-3-1-5-3-7l-133-133c-2-2-5-3-7-3-2 0-5 1-7 3l-14 14c-2 2-3 4-3 7 0 2 1 5 3 6l112 113-112 112c-2 2-3 4-3 7 0 2 1 4 3 6l14 14c2 2 5 3 7 3 2 0 5-1 7-3l133-133c2-2 3-4 3-6z"/>
<glyph glyph-name="angle-left" unicode="&#76;" d="M344 357c0-3-1-5-3-7l-112-112 112-113c2-1 3-4 3-6 0-3-1-5-3-7l-14-14c-2-2-5-3-7-3-2 0-5 1-7 3l-133 133c-2 2-3 4-3 7 0 2 1 4 3 6l133 133c2 2 5 3 7 3 2 0 5-1 7-3l14-14c2-2 3-4 3-6z"/>
<glyph glyph-name="menu" unicode="&#97;" d="M475 128l0-37c0-5-1-9-5-12-4-4-8-6-13-6l-402 0c-5 0-9 2-13 6-4 3-5 7-5 12l0 37c0 5 1 9 5 13 4 3 8 5 13 5l402 0c5 0 9-2 13-5 4-4 5-8 5-13z m0 146l0-36c0-5-1-10-5-13-4-4-8-6-13-6l-402 0c-5 0-9 2-13 6-4 3-5 8-5 13l0 36c0 5 1 10 5 13 4 4 8 6 13 6l402 0c5 0 9-2 13-6 4-3 5-8 5-13z m0 147l0-37c0-5-1-9-5-13-4-3-8-5-13-5l-402 0c-5 0-9 2-13 5-4 4-5 8-5 13l0 37c0 5 1 9 5 12 4 4 8 6 13 6l402 0c5 0 9-2 13-6 4-3 5-7 5-12z"/>
<glyph glyph-name="add" unicode="&#77;" d="M256 464c-115 0-208-93-208-208 0-115 93-208 208-208 115 0 208 93 208 208 0 115-93 208-208 208z m0-399c-105 0-191 86-191 191 0 105 86 191 191 191 105 0 191-86 191-191 0-105-86-191-191-191z m8 319l-17 0 0-120-119 0 0-17 119 0 0-119 17 0 0 119 120 0 0 17-120 0z"/>
<glyph glyph-name="search" unicode="&#98;" d="M493 96l-125 125c18 29 29 62 29 99 0 106-86 192-192 192-106 0-192-86-192-192 0-106 86-192 192-192 36 0 70 11 99 28l125-124c9-9 23-9 32 0l32 32c9 9 9 23 0 32z m-288 96c-71 0-128 57-128 128 0 71 57 128 128 128 70 0 128-57 128-128 0-71-58-128-128-128z"/>
<glyph glyph-name="notification" unicode="&#80;" d="M261 27c0 3-2 5-5 5-11 0-21 4-29 12-8 8-12 18-12 29 0 3-2 5-5 5-3 0-4-2-4-5 0-14 5-26 14-35 10-10 22-15 36-15 3 0 5 1 5 4z m233 83c0-10-4-19-11-26-7-7-16-11-26-11l-128 0c0-20-7-37-21-52-15-14-32-21-52-21-20 0-37 7-52 21-14 15-21 32-21 52l-128 0c-10 0-19 4-26 11-7 7-11 16-11 26 10 8 18 16 26 25 8 9 16 20 25 34 8 14 15 29 21 45 6 16 10 36 14 59 4 23 6 48 6 74 0 29 11 56 33 81 22 25 52 40 88 45-2 4-2 8-2 12 0 7 2 14 8 19 5 5 11 8 19 8 8 0 14-3 19-8 6-5 8-12 8-19 0-4 0-8-2-12 36-5 66-20 88-45 22-25 33-52 33-81 0-26 2-51 6-74 4-23 8-43 14-59 6-16 13-31 21-45 9-14 17-25 25-34 8-9 16-17 26-25z"/>
<glyph glyph-name="google-plus" unicode="&#120;" d="M228 285c0-7 3-14 9-21 7-6 14-13 23-19 8-6 17-13 25-21 9-8 16-18 22-30 7-12 10-25 10-40 0-17-5-34-14-50-14-23-34-40-60-51-27-11-55-16-86-16-25 0-48 4-70 11-22 8-38 21-49 40-7 11-11 24-11 37 0 16 5 30 13 43 9 13 20 24 34 33 25 15 63 25 115 28-6 8-10 15-13 22-3 6-5 13-5 20 0 7 2 15 6 25-8-1-15-1-19-1-28 0-52 9-71 27-20 19-29 42-29 70 0 16 3 31 10 45 7 15 16 28 28 38 15 12 32 22 52 28 21 6 41 9 63 9l119 0-39-25-38 0c14-12 25-25 32-38 7-13 11-29 11-46 0-14-2-26-7-37-5-11-10-20-17-26-6-7-13-13-20-19-6-6-12-11-17-18-4-6-7-12-7-18z m-41 27c7 0 14 2 22 5 7 3 14 7 19 12 10 11 15 26 15 46 0 11-2 23-5 35-3 13-8 25-14 37-6 12-14 22-24 30-10 8-21 12-33 12-8 0-16-2-24-6-8-4-14-9-19-15-9-11-13-26-13-46 0-8 1-18 3-28 2-9 5-19 9-29 4-10 9-19 15-26 5-8 13-15 21-20 8-5 18-7 28-7z m0-249c11 0 22 1 32 3 10 3 20 6 28 11 9 5 16 12 21 21 5 9 8 20 8 31 0 5-1 10-2 14-1 5-3 9-4 12-2 4-4 8-8 12-4 5-6 8-8 10-2 2-6 6-11 10-6 5-9 7-11 8-1 2-5 4-12 9-6 5-9 7-10 7-3 1-8 1-14 1-10 0-20-1-30-2-10-1-20-4-30-7-11-4-20-8-28-13-8-6-15-13-20-22-5-8-7-18-7-30 0-13 3-25 10-35 6-10 15-18 26-24 10-5 22-10 34-12 12-3 24-4 36-4z m232 250l60 0 0-31-60 0 0-63-30 0 0 63-61 0 0 31 61 0 0 62 30 0z"/>
<glyph glyph-name="youtube" unicode="&#78;" d="M314 157l0-61c0-12-4-19-11-19-5 0-9 2-13 6l0 86c4 5 8 7 13 7 7 0 11-7 11-19z m97-1l0-13-26 0 0 13c0 13 4 20 13 20 8 0 13-7 13-20z m-276 63l30 0 0 26-89 0 0-26 30 0 0-163 29 0z m82-163l25 0 0 141-25 0 0-108c-6-8-11-12-16-12-4 0-6 2-6 6-1 1-1 4-1 10l0 104-25 0 0-112c0-9 1-16 2-20 2-7 8-11 17-11 9 0 19 6 29 17z m122 42l0 57c0 13 0 23-2 28-3 11-10 16-20 16-10 0-19-5-27-16l0 62-25 0 0-189 25 0 0 14c9-11 17-16 27-16 10 0 17 5 20 16 2 5 2 14 2 28z m97 3l0 4-26 0c0-10 0-16-1-18-1-6-5-10-11-10-9 0-13 7-13 20l0 25 51 0 0 29c0 15-3 26-8 33-7 10-17 15-30 15-13 0-23-5-31-15-5-7-8-18-8-33l0-49c0-15 3-26 9-33 7-10 17-15 31-15 13 0 24 5 30 15 4 5 6 10 6 16 1 1 1 7 1 16z m-174 261l0 60c0 13-4 20-12 20-8 0-12-7-12-20l0-60c0-13 4-20 12-20 8 0 12 7 12 20z m206-215c0-44-3-77-8-100-2-11-8-20-16-28-9-7-18-12-29-13-35-4-88-6-159-6-71 0-124 2-159 6-11 1-20 6-29 13-8 8-14 17-16 28-5 22-8 55-8 100 0 45 3 78 8 100 2 12 8 21 16 29 9 7 18 12 30 13 35 4 87 6 158 6 71 0 124-2 159-6 11-1 20-6 29-13 8-8 14-17 16-29 5-21 8-54 8-100z m-285 365l29 0-35-114 0-77-28 0 0 77c-3 14-9 34-18 61-7 19-13 37-18 53l30 0 20-75z m105-95l0-50c0-16-2-27-8-34-7-10-17-14-30-14-13 0-23 4-30 14-5 7-8 19-8 34l0 50c0 15 3 26 8 33 7 10 17 15 30 15 13 0 23-5 30-15 6-7 8-18 8-33z m96 46l0-142-26 0 0 15c-10-12-20-17-29-17-9 0-15 3-17 10-2 5-3 12-3 22l0 112 26 0 0-105c0-6 1-9 1-10 0-4 2-6 6-6 5 0 10 4 16 12l0 109z"/>
<glyph glyph-name="email-1" unicode="&#81;" d="M183 260l75-61-1 0z m75-47l-67 56 66-56z m182 146l0-225-368 0 0 225 39 26 0 61 94 0 52 34 51-34 93 0 0-61z m-39-24l24 20-24 17z m-175 111l62 0-31 21z m-104-120l69-57 66-56 1 0 132 113 0 109-268 0z m-35 29l24-20 0 36z m342-11l-171-145 0 0-75 61-100 84 0-199 346 0 0 199z m-174-71c-29 0-53 21-53 55 0 36 25 68 64 68 31 0 51-22 51-51 0-27-14-43-31-43-7 0-14 5-13 16l-1 0c-6-10-14-16-25-16-10 0-19 9-19 23 0 22 18 42 42 42 8 0 14-2 19-4l-6-32c-3-14 0-20 5-20 9 0 19 12 19 32 0 26-15 44-42 44-29 0-53-22-53-58 0-30 19-48 45-48 10 0 20 2 27 6l3-7c-10-5-20-7-32-7z m22 83c-2 1-5 1-9 1-15 0-28-14-28-32 0-7 4-13 12-13 10 0 19 13 21 24z"/>
<glyph glyph-name="circle-full" unicode="&#110;" d="M256 0c-141 0-256 115-256 256 0 141 115 256 256 256 141 0 256-115 256-256 0-141-115-256-256-256z m0 448c-106 0-192-86-192-192 0-106 86-192 192-192 106 0 192 86 192 192 0 106-86 192-192 192z m0-320c-71 0-128 57-128 128 0 71 57 128 128 128 71 0 128-57 128-128 0-71-57-128-128-128z"/>
<glyph glyph-name="close" unicode="&#106;" d="M405 375l-30 30-119-119-119 119-30-30 119-119-119-119 30-30 119 119 119-119 30 30-119 119z"/>
<glyph glyph-name="tick" unicode="&#79;" d="M186 172l-90 91-32-31 122-122 262 261-32 31z"/>
<glyph glyph-name="create" unicode="&#84;" d="M64 144l0-80 80 0 236 236-80 80z m378 218c8 8 8 21 0 29l-51 51c-8 8-21 8-29 0l-40-40 80-80z"/>
<glyph glyph-name="download-circle" unicode="&#82;" d="M320 352l-128 0 0-96-64 0 128-128 128 128-64 0z m-64 160c-141 0-256-115-256-256 0-141 115-256 256-256 141 0 256 115 256 256 0 141-115 256-256 256m0-448c-106 0-192 86-192 192 0 106 86 192 192 192 106 0 192-86 192-192 0-106-86-192-192-192"/>
<glyph glyph-name="location-map" unicode="&#117;" d="M14 522c0 1 0 2-1 3-1 1-3 2-5 2-4 0-7-3-7-8 0-4 3-7 7-7 3 0 6 2 6 5l-3 0c0-2-1-3-3-3-3 0-4 2-4 5 0 4 1 6 4 6 1 0 2-1 2-2 1 0 1 0 1-1z m-13 1l0-11 3 0 0 6c0 2 1 2 3 2 0 0 0 0 1 0l0 3c-1 0-1 0-1 0-1 0-2-1-3-2l0 2z m10-6c0 0 0 0 0 0 0 1 0 2-1 3 0 2-2 3-4 3-4 0-6-2-6-6 0-3 2-5 6-5 2 0 4 1 5 3l-3 0c-1-1-1-1-2-1-1 0-2 0-2 1-1 0-1 1-1 2z m-8 2c1 1 1 2 3 2 0 0 1 0 1-1 1 0 1-1 1-1z m8-7c-1 1-1 1-1 2l0 6c0 2-1 3-4 3-3 0-5-1-5-4l3 0c0 2 0 2 2 2 1 0 1 0 1-1 0-1 0-1 0-1-1 0-1 0-2 0l-1-1c-2 0-3-1-3-3 0-1 0-2 0-2 1-1 2-1 3-1 1 0 2 0 3 1 0 0 0-1 1-1l3 0z m-4 4c0-1-1-2-2-2-1 0-2 0-2 1 0 1 1 1 2 2l1 0c1 0 1 0 1 0z m-1 7l-1 0 0 3-3 0 0-3-2 0 0-2 2 0 0-7c0-2 1-2 3-2 0 0 1 0 1 0l0 2c0 0 0 0 0 0-1 0-1 0-1 1l0 6 1 0z m2-11l3 0 0 15-3 0 0-5c0 1-1 1-3 1-2 0-4-2-4-6 0-1 0-3 1-4 1-1 2-1 3-1 2 0 3 0 3 1z m-2 9c1 0 2-2 2-4 0-2-1-3-2-3-2 0-3 1-3 3 0 2 1 4 3 4z m-5 6l0-15 3 0 0 1c1-1 2-1 3-1 3 0 5 2 5 5 0 2-1 3-1 4-1 2-3 2-4 2-1 0-2 0-3-1l0 5z m6-6c1 0 2-2 2-4 0-2-1-3-2-3-2 0-3 1-3 3 0 2 1 4 3 4z m1 2l-2-8-3 8-3 0 4-11 0-1c0-1 0-1-1-1-1 0-1 0-1 0l0-2c0 0 0 0 1 0 1 0 1 0 2 0 1 0 1 1 1 2l5 13z m-1 4l0-11c0-1-1-2-2-2-1 0-1 1-1 2l0 2-4 0 0-2c0-1 1-2 2-3 1-1 2-1 3-1 3 0 5 1 5 4l0 11z m-1-4c-3 0-5-2-5-6 0-3 2-5 5-5 4 0 6 2 6 5 0 4-2 6-6 6z m0-2c2 0 3-1 3-4 0-2-1-3-3-3-1 0-2 1-2 3 0 3 1 4 2 4z m4-1c0 2-1 3-4 3-3 0-5-1-5-3 0-1 0-2 1-2 0-1 0-1 1-1l4-1c1 0 1-1 1-1 0-1-1-1-2-1-1 0-2 0-2 0 0 0 0 1-1 1l-2 0c0-2 1-3 5-3 1 0 3 0 3 1 1 0 2 1 2 2 0 2-1 3-3 3l-3 1c-1 0-1 1-1 1 0 1 1 1 2 1 1 0 2 0 2-1z m-6 4l3-12 3 0 3 12 0-12 3 0 0 15-5 0-2-12-3 12-5 0 0-15 3 0z m2-1l-1 0 0 1c0 1 0 1 0 1 1 0 1 0 1 0l0 2c0 0-1 0-1 0-2 0-3-1-3-3l0-1-2 0 0-2 2 0 0-9 3 0 0 9 1 0z m-5 0l0-11 3 0 0 7c0 1 1 2 2 2 1 0 2-1 2-2l0-7 2 0 0 7c0 1 1 2 2 2 1 0 2-1 2-2l0-7 3 0 0 8c0 2-1 3-4 3-1 0-2 0-3-1 0 1-2 1-3 1-1 0-2 0-3-1l0 1z m0 4l0-15 3 0 0 7c0 1 1 2 2 2 1 0 2 0 2-1 0 0 0-1 0-1l0-7 3 0 0 7c0 2 0 3-1 3-1 1-2 1-3 1-1 0-2 0-3-2l0 6z m9-15l4 0 0 15-4 0 0-10-5 10-4 0 0-15 3 0 0 10z m1 0l0 11-3 0 0-7c0-1-1-2-2-2-1 0-2 1-2 2l0 7-3 0 0-8c0-2 2-3 4-3 1 0 2 0 3 1l0-1z m-10 11l0-11 3 0 0 7c0 1 1 2 2 2 2 0 2-1 2-2l0-7 3 0 0 7c0 3-1 4-4 4-1 0-2 0-3-2l0 2z m4-6l3 0c3 0 5 2 5 5 0 3-2 5-5 5l-6 0 0-15 3 0z m0 3l0 4 3 0c1 0 2 0 2-2 0-1-1-2-2-2z m-1 3l-3 0 0-12c0-1 0-1 0-1-1 0-1 0-1 0l0-2c1 0 1 0 2 0 2 0 2 0 2 2z m0 4l-3 0 0-3 3 0z m7-8c-1 3-2 4-5 4-3 0-5-2-5-6 0-3 2-5 5-5 3 0 4 1 5 4l-3 0c0-2-1-2-2-2-2 0-2 1-2 3 0 1 0 2 0 3 0 1 1 1 2 1 1 0 2-1 2-2z m303-138c-14 0-26 12-26 26 0 13 12 25 26 25 13 0 25-12 25-25 0-14-12-26-25-26m0-66c0 0 52 65 52 94 0 29-24 52-52 52-29 0-53-23-53-52 0-29 53-94 53-94m-122-126l-54 23 0 155 54-22z m205 4l0 196-20 10c-2-5-4-11-7-17l8-6 0-155-55 22 0 71c-2-3-3-5-4-6l-5-7-6 7c-1 1-2 3-4 5l0-78-93-38 0 155 49 17c-3 6-5 12-7 18l-61-22-73 30 0-196 73-30 131 54 0 0z"/>
<glyph glyph-name="person-add" unicode="&#83;" d="M429 184l0 51 51 0 0 42-51 0 0 51-42 0 0-51-51 0 0-42 51 0 0-51z m-13-120c0 0 0 26-2 40-2 11-17 25-81 49-63 23-60 12-60 55 0 27 15 11 24 64 3 21 6 7 13 40 4 17-2 19-1 27 0 8 1 16 3 33 1 21-18 76-88 76-70 0-89-55-87-76 1-17 2-25 3-33 0-8-6-10-2-27 7-33 10-19 14-40 9-53 23-37 23-64 0-43 4-32-60-55-64-24-79-38-81-49-2-14-2-40-2-40z"/>
<glyph glyph-name="android-person-add" unicode="&#85;" d="M304 256c53 0 96 43 96 96 0 53-43 96-96 96-53 0-96-43-96-96 0-53 43-96 96-96z m0-48c-64 0-192-32-192-96l0-48 384 0 0 48c0 64-128 96-192 96z m-192 80l0 64-32 0 0-64-64 0 0-32 64 0 0-64 32 0 0 64 64 0 0 32z"/>
</font>
</defs>
</svg>
